Меч [Сезон 1/Серии 25 из 25] (Рустам Уразаев, Виктор Конисевич) [2009 г., Боевик, драма, DVDRip]

 

Создавать темы 11-Янв-2014 04:04

Меч--- Год выпуска: 2009 г.
Страна: Россия ,DIXI-TV
Жанр: Боевик, драма
Сезон/Серия: Сезон 1/Серии 25 из 25
Продолжительность: 25 x ~ 00:47:55
Cубтитры: нет-Режиссер: Рустам Уразаев, Виктор Конисевич-В ролях: Эдуард Флёров, Роман Курцын, Тимур Ефременков, Дарья Повереннова, Виктория Фишер, Александр Баринов, Нина Гогаева, Владислав Павлов, Александр Фисенко, Шухрат Иргашев, Сергей Фишер, Дмитрий Миронов, Геннадий Подшивалов, Наталья Коновалова, Игорь Карлов, Дмитрий Антимонов, Александр Горохов (II), Александр Воробьёв (II), Анастасия Тюфякина, Дмитрий Родионов (II), Никита Новиков, Яна Белугина, Александр Зельский, Дмитрий Белогуров, Илья Кремнев, Сергей Холмогоров, Марина Налетова, Павел Фалов, Ольга Жилова, Дмитрий Ефремов, Магомед Аваданский, Ангелина Ноздрина, Сергей Болотаев, Адам Булгучев, Григорий Меликбекян, Дмитрий Чибизов, Сергей Колокольцев, Илья Гремнев, Алихан Закиров, Фёдор Старых, Татьяна-Описание: Максу Калинину 35 лет, он бывший офицер разведки ВДВ, оперативник УБОП. После 10 лет работы его увольняют со службы по фиктивному обвинению, без права в дальнейшем работать в органах правопорядка, а опасный преступник выходит на свободу без предъявления обвинения. Это Калинин не может простить. Проследив за отпущенным на свободу преступником, Калинин в тот же вечер вершит собственное правосудие, убивая его. С этого дня Калинин понимает, чем он будет заниматься, - он будет бороться с беззаконием своими методами. И ЗАКОН у него будет свой... И НАКАЗАНИЕ только одно – смерть... Калинин собирает команду из таких же как и он. Преступные деньги, которыми удается завладеть, бойцы оставляют себе и постепенно маленькая команда, превращается в опасную карательную организацию, которую бояться все и теперь они находятся между двух зол – криминального мира, который объявляет огромные деньги за их «головы» и своих бывших коллег, которые начинают охоту на «оборотней»...-
Качество: DVDRip
Формат видео: AVI
Видео кодек: XviD
Аудио кодек: AC3
Видео: 704x400 (1.76:1), 25 fps, XviD MPEG-4 ~1406 kbps avg, 0.20 bit/pixel
Аудио: 48 kHz, AC3 Dolby Digital, 2/0 (L,R) ch, ~192 kbps

Скриншоты

MediaInfo

Общее
Полное имя : D:\Мои фильмы\Mech_01-25iz25_2009_XviD_DVDRip\Mech_01_iz_25_2009_DVDRip.avi
Формат : AVI
Формат/Информация : Audio Video Interleave
Размер файла : 550 Мбайт
Продолжительность : 47 м.
Общий поток : 1608 Кбит/сек
Программа кодирования : VirtualDubMod 1.5.10.2 (build 2540/release)
Библиотека кодирования : VirtualDub build 35503/release
Видео
Идентификатор : 0
Формат : MPEG-4 Visual
Профиль формата : Advanced [email protected]
Параметр BVOP формата : 2
Параметр QPel формата : Нет
Параметр GMC формата : Без точки перехода
Параметр матрицы формата : Default (H.263)
Режим смешивания : Сжатый битовый поток
Идентификатор кодека : XVID
Идентификатор кодека/Подсказка : XviD
Продолжительность : 47 м.
Битрейт : 1407 Кбит/сек
Ширина : 704 пикселя
Высота : 400 пикселей
Соотношение сторон : 16:9
Частота кадров : 25,000 кадров/сек
Цветовое пространство : YUV
Субдискретизация насыщенности : 4:2:0
Битовая глубина : 8 бит
Тип развёртки : Прогрессивная
Метод сжатия : С потерями
Бит/(Пиксели*Кадры) : 0.200
Размер потока : 481 Мбайт (87%)
Библиотека кодирования : XviD 64
Аудио
Идентификатор : 1
Формат : AC-3
Формат/Информация : Audio Coding 3
Расширение режима : CM (complete main)
Параметр Endianness формата : Big
Идентификатор кодека : 2000
Продолжительность : 47 м.
Вид битрейта : Постоянный
Битрейт : 192 Кбит/сек
Каналы : 2 канала
Расположение каналов : Front: L R
Частота : 48,0 КГц
Битовая глубина : 16 бит
Метод сжатия : С потерями
Размер потока : 65,7 Мбайт (12%)
Выравнивание : Соединение по промежуткам
Продолжительность промежутка : 40 мс. (1,00 видеокадр)
Время предзагрузки промежутка : 512 мс.
Яндекс.Метрика
Рейтинг@Mail.ru