Люди против львов / Lion Warriors (Кир Годал / Kire Godal) [2010 г., Документальный, HDTV, 1080i] (VO)

 

Создавать темы 11-Янв-2014 04:55

Люди против львов / Lion Warriors
Год выпуска: 2010
Производство: США
Жанр: Документальный
Продолжительность: 00:45:09
Перевод: Профессиональный (одноголосый)
Режиссер: Кир Годал / Kire Godal
На равнинах Кении, раскинувшихся у подножья горы Килиманджаро, как и сотни лет назад, львы традиционно нападают на домашний скот масаев - коренных жителей этой страны. А гордые воины-масаи также традиционно ведут охоту на львов. Из-за сложившейся веками ситуации популяция львов сокращается, и в настоящее время во всей стране осталось всего около 2000 этих животных.
Источник/Качество: HDTV
Формат: MPEG-TS
Стандарт разрешения: 1080i
Видео кодек: AVC
Аудио кодек: AC3
Видео: 12,9 Мбит/сек, 1920*1080 (16:9), в 25,000 кадров/сек, AVC (Component) ([email protected]) (CABAC / 3 Ref Frames)
Аудио: Русский 192 Кбит/сек, 48,0 КГц, 16 бит, 2 канала, AC-3
Аудио #2: Английский 192 Кбит/сек, 48,0 КГц, 16 бит, 2 канала, AC-3

Media Info

Общее
Идентификатор : 1 (0x1)
Полное имя : Lion_Warriors.ts
Формат : MPEG-TS
Размер файла : 4,41 Гбайт
Продолжительность : 45 м.
Общий поток : 14,0 Мбит/сек
Максимальный общий битрейт : 35,5 Мбит/сек
Видео
Идентификатор : 4113 (0x1011)
Идентификатор меню : 1 (0x1)
Формат : AVC
Формат/Информация : Advanced Video Codec
Профиль формата : [email protected]
Параметр CABAC формата : Да
Параметр ReFrames формата : 3 кадра
Идентификатор кодека : 27
Продолжительность : 45 м.
Битрейт : 12,9 Мбит/сек
Ширина : 1920 пикселей
Высота : 1080 пикселей
Соотношение сторон : 16:9
Частота кадров : 25,000 кадров/сек
Стандарт вещания : Component
Цветовое пространство : YUV
Субдискретизация насыщенности : 4:2:0
Битовая глубина : 8 бит
Тип развёртки : Чересстрочная
Порядок развёртки : Верхнее поле первое
Бит/(Пиксели*Кадры) : 0.249
Размер потока : 4,07 Гбайт (92%)
Основные цвета : BT.709-5, BT.1361, IEC 61966-2-4, SMPTE RP177
Характеристики трансфера : BT.709-5, BT.1361
Коэффициенты матрицы : BT.709-5, BT.1361, IEC 61966-2-4 709, SMPTE RP177
Аудио #1
Идентификатор : 4352 (0x1100)
Идентификатор меню : 1 (0x1)
Формат : AC-3
Формат/Информация : Audio Coding 3
Расширение режима : CM (complete main)
Идентификатор кодека : 129
Продолжительность : 45 м.
Вид битрейта : Постоянный
Битрейт : 192 Кбит/сек
Каналы : 2 канала
Расположение каналов : Front: L R
Частота : 48,0 КГц
Битовая глубина : 16 бит
Метод сжатия : С потерями
Задержка видео : -874 мс.
Размер потока : 62,0 Мбайт (1%)
Аудио #2
Идентификатор : 4353 (0x1101)
Идентификатор меню : 1 (0x1)
Формат : AC-3
Формат/Информация : Audio Coding 3
Расширение режима : CM (complete main)
Идентификатор кодека : 129
Продолжительность : 45 м.
Вид битрейта : Постоянный
Битрейт : 192 Кбит/сек
Каналы : 2 канала
Расположение каналов : Front: L R
Частота : 48,0 КГц
Битовая глубина : 16 бит
Метод сжатия : С потерями
Задержка видео : -874 мс.
Размер потока : 62,0 Мбайт (1%)

Скриншоты

Яндекс.Метрика
Рейтинг@Mail.ru