Смертельная красотка / Fatal Beauty (Том Холлэнд / Tom Holland) [1987 г., Боевик, комедия, драма, криминал, DVDRip] AVO (А.Гаврилов) + original eng

 

Создавать темы 14-Янв-2014 02:30

Смертельная красотка / Fatal Beauty Год выпуска: 1987
Мировая премьера: 30 октября 1987
Производство: США, Япония
Жанр: боевик, комедия, драма, криминал
Продолжительность: 01:46:35
Перевод: Авторский (одноголосый) А.Гаврилов
Оригинальный аудиопоток: Английский
Режиссер: Том Холлэнд / Tom Holland
В ролях:
Вупи Голдберг /Whoopi Goldberg/, Сэм Эллиотт /Sam Elliott/, Рубен Блэйдс /Ruben Blades/, Харрис Юлин /Harris Yulin ...
Описание:
Рита — полицейский, сотрудница отдела по борьбе с наркотиками. Мужественная женщина, практически в одиночку, выслеживает крупную банду наркодельцов, распространяющих смертельный наркотик, носящий название «Роковая красотка»…
Доп. информация:
За DVD5 спасибо серый75
Источник/Качество: DVDRip
Формат: AVI
Видео кодек: XviD
Аудио кодек: AC3
Видео: 720x400, 1567 kbps, 23.976 fps, 0.23 bit/pixel
Audio 1: Dolby AC3 48000Hz stereo 192Kbps А.Гаврилов
Audio 2: Dolby AC3 48000Hz stereo 192Kbps Оригинал

Media Info

Общее
Полное имя : D:\[Pirat.ca]\! ~ Consul ~ !\Смертельная красотка (1987) DVDRip\v2\Smertelnaya krasotka.1987.DVDRip.avi
Формат : AVI
Формат/Информация : Audio Video Interleave
Размер файла : 1,46 Гбайт
Продолжительность : 1 ч. 46 м.
Общий поток : 1965 Кбит/сек
Режиссёр : Consul
Программа кодирования : VirtualDubModRus 1.5.10.2 (build 2542/release)
Библиотека кодирования : VirtualDubMod build 2542/release
Примечание : Consul specifically for www.pirat.ca
Видео
Идентификатор : 0
Формат : MPEG-4 Visual
Профиль формата : Advanced [email protected]
Параметр BVOP формата : 1
Параметр QPel формата : Нет
Параметр GMC формата : Без точки перехода
Параметр матрицы формата : Выборочная
Идентификатор кодека : XVID
Идентификатор кодека/Подсказка : XviD
Продолжительность : 1 ч. 46 м.
Битрейт : 1567 Кбит/сек
Ширина : 720 пикселей
Высота : 400 пикселей
Соотношение сторон : 16:9
Частота кадров : 23,976 кадра/сек
Цветовое пространство : YUV
Субдискретизация насыщенности : 4:2:0
Битовая глубина : 8 бит
Тип развёртки : Прогрессивная
Метод сжатия : С потерями
Бит/(Пиксели*Кадры) : 0.227
Размер потока : 1,17 Гбайт (80%)
Библиотека кодирования : XviD 1.2.0.dev47 (UTC 2006-11-01)
Аудио #1
Идентификатор : 1
Формат : AC-3
Формат/Информация : Audio Coding 3
Расширение режима : CM (complete main)
Идентификатор кодека : 2000
Продолжительность : 1 ч. 46 м.
Вид битрейта : Постоянный
Битрейт : 192 Кбит/сек
Каналы : 2 канала
Расположение каналов : Front: L R
Частота : 48,0 КГц
Битовая глубина : 16 бит
Метод сжатия : С потерями
Размер потока : 146 Мбайт (10%)
Выравнивание : Разделение по промежуткам
Продолжительность промежутка : 42 мс. (1,00 видеокадр)
Заголовок : AVO ( А.Гаврилов )
Аудио #2
Идентификатор : 2
Формат : AC-3
Формат/Информация : Audio Coding 3
Профиль формата : Dolby Digital
Расширение режима : CM (complete main)
Идентификатор кодека : 2000
Продолжительность : 1 ч. 46 м.
Вид битрейта : Постоянный
Битрейт : 192 Кбит/сек
Каналы : 2 канала
Расположение каналов : Front: L R
Частота : 48,0 КГц
Битовая глубина : 16 бит
Метод сжатия : С потерями
Размер потока : 146 Мбайт (10%)
Выравнивание : Разделение по промежуткам
Продолжительность промежутка : 42 мс. (1,00 видеокадр)
Заголовок : Оригинал

Скриншоты

- - -
Яндекс.Метрика
Рейтинг@Mail.ru