[ Сегодня на трекере фрилич! Идет свободное скачивание без начисления Download ]

Starперцы / Last Vegas (Джон Тёртелтауб / Jon Turteltaub) [2013 г., комедия, драма, HDRip] MVO

 

Создавать темы 17-Янв-2014 20:18

-Starперцы / Last Vegas-«Мы - легенда»- Производство: США, CBS Films, Gidden Media, Good Universe, Outlaw Sinema
Год выпуска: 2013 г.
Жанр: комедия, драма
Продолжительность: 01:44:59
Мировая премьера: 31 октября 2013
Российская премьера: 14 ноября 2013, «Централ Партнершип»
Перевод: многоголосый, закадровый [BaibaKo]
Режиссер: Джон Тёртелтауб / Jon Turteltaub-В ролях: Майкл Дуглас, Роберт Де Ниро, Морган Фримен, Кевин Клайн, Мэри Стинберген, Джерри Феррара, Романи Малко, Роджер Барт, Джоанна Глисон, Майкл Или-Описание: Билли, Пэдди, Арчи и Сэм дружат больше полувека. И когда убежденный холостяк Билли наконец-то делает предложение своей юной подружке, великолепная четверка отправляется в Лас-Вегас, чтобы скинуть с себя груз прожитого и зажечь как в последний раз. Великовозрастные гуляки и не подозревают, как за десятилетия эволюционировал Город Грехов…-
Качество видео: HDRip
Контейнер: AVI
Видео кодек: XviD
Аудио кодек: AC3
Видео: 720x304 (2.37:1), 23.976 fps, XviD build 50 ~1528 kbps avg, 0.29 bit/pixel
Аудио: 48 kHz, AC3 Dolby Digital, 3/2 (L,C,R,l,r) + LFE ch, ~448.00 kbps avg
Cубтитры: отсутствуют

Media Info

General
Complete name : ..\Starpercy.2013.HDRip_[pirat.ca].avi
Format : AVI
Format/Info : Audio Video Interleave
File size : 1.46 GiB
Duration : 1h 44mn
Overall bit rate : 1 986 Kbps
Writing application : VirtualDubMod 1.5.10.2 (build 2540/release)
Writing library : VirtualDubMod build 2540/release
Video
ID : 0
Format : MPEG-4 Visual
Format profile : Advanced [email protected]
Format settings, BVOP : 2
Format settings, QPel : No
Format settings, GMC : No warppoints
Format settings, Matrix : Custom
Codec ID : XVID
Codec ID/Hint : XviD
Duration : 1h 44mn
Bit rate : 1 529 Kbps
Width : 720 pixels
Height : 304 pixels
Display aspect ratio : 2.35:1
Frame rate : 23.976 fps
Color space : YUV
Chroma subsampling : 4:2:0
Bit depth : 8 bits
Scan type : Progressive
Compression mode : Lossy
Bits/(Pixel*Frame) : 0.291
Stream size : 1.12 GiB (77%)
Writing library : XviD 1.2.1 (UTC 2008-12-04)
Audio
ID : 1
Format : AC-3
Format/Info : Audio Coding 3
Mode extension : CM (complete main)
Format settings, Endianness : Big
Codec ID : 2000
Duration : 1h 44mn
Bit rate mode : Constant
Bit rate : 448 Kbps
Channel count : 6 channels
Channel positions : Front: L C R, Side: L R, LFE
Sampling rate : 48.0 KHz
Bit depth : 16 bits
Compression mode : Lossy
Stream size : 336 MiB (23%)
Alignment : Split accross interleaves
Interleave, duration : 42 ms (1.00 video frame)
Interleave, preload duration : 500 ms

Скриншот c названием фильма

Скриншоты

-
Яндекс.Метрика
Рейтинг@Mail.ru