[ Сегодня на трекере фрилич! Идет свободное скачивание без начисления Download ]

Армагеддец / The World's End (Эдгар Райт / Edgar Wright) [2013 г., фантастика, боевик, комедия, BDRip, 720p] Dub Sub Rus + Original (Eng)

 

Создавать темы 22-Янв-2014 03:14

-Армагеддец / The World's End--"Убойные напитки. Отличная закуска. На десерт – конец света"-- Производство: Великобритания
Год выпуска: 2013 г.
Жанр: фантастика, боевик, комедия
Продолжительность: 01:49:07
Мировая премьера: 18 июля 2013
Российская премьера: 17 октября 2013
Дата выхода DVD: 23 января 2014
Дата выхода Blu-Ray: 23 января 2014
Перевод: Профессиональный (полное дублирование) [Blu-ray CEE]
Оригинальный аудиопоток: английский
Режиссер: Эдгар Райт / Edgar Wright-В ролях: Саймон Пегг, Ник Фрост, Пэдди Консидайн, Мартин Фриман, Эдди Марсан, Розамунд Пайк, Пирс Броснан, Дэвид Брэдли, Стив Орам, Томас Ло-Описание: Их подвиг был бы увековечен в Книге рекордов Гиннесса, если бы они знали, что Гиннесс — это не только пиво. Пятеро друзей ставят себе высокую цель — организовать грандиозный забег по барам. Опасности подстерегают их на каждом шагу: красотка, от которой сходила с ума вся школа, так и тянет налево, в то время как справа надвигается таинственная угроза. В результате алкомарафон плавно переходит в реальный Армагеддец…-
Качество видео: BDRip
Контейнер: MKV
Стандарт разрешения: 720p
Видео кодек: H.264
Аудио кодек: DTS
Видео: 1280x544, 23.976 fps, ~7355 kbps avg
Аудио: Russian: 48 kHz, DTS, 3/2 (L,C,R,l,r) + LFE ch, ~768.00 kbps avg
Аудио #2: English: 48 kHz, DTS, 3/2 (L,C,R,l,r) + LFE ch, ~1536.00 kbps avg
Cубтитры: Russian (Forced, Blu-ray CEE), Russian (Blu-ray CEE), English, English (SDH), English (SDH-COLOgreen)

Media Info

General
Complete name : F:\Uploads\Pirat.Ca\The.World's.End.2013.720p.BluRay.DTS.Rus.Eng.mkv
Format : Matroska
File size : 7.34 GiB
Duration : 1h 49mn
Overall bit rate : 9 628 Kbps
Movie name : The World's End (2013) - Release for PIRAT.CA
Encoded date : UTC 2014-01-21 06:08:02
Writing application : mkvmerge v6.0.0 ('Coming Up For Air') built on Jan 20 2013 09:52:00
Writing library : libebml v1.3.0 + libmatroska v1.4.0
Video
ID : 1
Format : AVC
Format/Info : Advanced Video Codec
Format profile : [email protected]
Format settings, CABAC : Yes
Format settings, ReFrames : 12 frames
Muxing mode : Container [email protected]
Codec ID : V_MPEG4/ISO/AVC
Duration : 1h 49mn
Bit rate : 7 355 Kbps
Width : 1 280 pixels
Height : 544 pixels
Display aspect ratio : 2.35:1
Frame rate : 23.976 fps
Color space : YUV
Chroma subsampling : 4:2:0
Bit depth : 8 bits
Scan type : Progressive
Bits/(Pixel*Frame) : 0.441
Stream size : 5.47 GiB (74%)
Title : The World's End (2013)
Writing library : x264 core 133 r2334 a3ac64b
Encoding settings : cabac=1 / ref=12 / deblock=1:-3:-3 / analyse=0x3:0x113 / me=tesa / subme=10 / psy=1 / psy_rd=1.05:0.10 / mixed_ref=1 / me_range=32 / chroma_me=1 / trellis=2 / 8x8dct=1 / cqm=0 / deadzone=21,11 / fast_pskip=0 / chroma_qp_offset=-5 / threads=12 / lookahead_threads=2 / sliced_threads=0 / nr=0 / decimate=0 / interlaced=0 / bluray_compat=0 / constrained_intra=0 / bframes=8 / b_pyramid=2 / b_adapt=2 / b_bias=0 / direct=3 / weightb=1 / open_gop=0 / weightp=2 / keyint=250 / keyint_min=23 / scenecut=40 / intra_refresh=0 / rc=2pass / mbtree=0 / bitrate=7355 / ratetol=1.0 / qcomp=0.85 / qpmin=0 / qpmax=69 / qpstep=4 / cplxblur=20.0 / qblur=0.5 / ip_ratio=1.20 / pb_ratio=1.30 / aq=1:0.85
Language : English
Audio #1
ID : 2
Format : DTS
Format/Info : Digital Theater Systems
Codec ID : A_DTS
Duration : 1h 49mn
Bit rate mode : Constant
Bit rate : 755 Kbps
Channel(s) : 6 channels
Channel positions : Front: L C R, Side: L R, LFE
Sampling rate : 48.0 KHz
Bit depth : 24 bits
Stream size : 589 MiB (8%)
Title : DTS 5.1 @ 768 kbps - DUB, Blu-ray CEE
Language : Russian
Audio #2
ID : 3
Format : DTS
Format/Info : Digital Theater Systems
Codec ID : A_DTS
Duration : 1h 49mn
Bit rate mode : Constant
Bit rate : 1 510 Kbps
Channel(s) : 6 channels
Channel positions : Front: L C R, Side: L R, LFE
Sampling rate : 48.0 KHz
Bit depth : 24 bits
Video delay : 11ms
Stream size : 1.15 GiB (16%)
Title : DTS 5.1 @ 1536 kbps
Language : English
Text #1
ID : 4
Format : UTF-8
Codec ID : S_TEXT/UTF8
Codec ID/Info : UTF-8 Plain Text
Title : Forced
Language : Russian
Text #2
ID : 5
Format : UTF-8
Codec ID : S_TEXT/UTF8
Codec ID/Info : UTF-8 Plain Text
Title : Blu-ray CEE
Language : Russian
Text #3
ID : 6
Format : UTF-8
Codec ID : S_TEXT/UTF8
Codec ID/Info : UTF-8 Plain Text
Language : English
Text #4
ID : 7
Format : UTF-8
Codec ID : S_TEXT/UTF8
Codec ID/Info : UTF-8 Plain Text
Title : SDH
Language : English
Text #5
ID : 8
Format : UTF-8
Codec ID : S_TEXT/UTF8
Codec ID/Info : UTF-8 Plain Text
Title : SDH-COLOgreen
Language : English
Menu
00:00:00.000 : en:
00:05:38.296 : en:
00:10:33.007 : en:
00:15:34.767 : en:
00:19:56.695 : en:
00:25:23.980 : en:
00:30:07.180 : en:
00:36:09.750 : en:
00:42:40.266 : en:
00:46:17.232 : en:
00:50:20.017 : en:
00:57:20.728 : en:
01:02:29.203 : en:
01:06:30.736 : en:
01:12:17.124 : en:
01:18:37.003 : en:
01:23:51.192 : en:
01:26:45.783 : en:
01:35:16.752 : en:
01:42:20.217 : en:

Скриншоты

Яндекс.Метрика
Рейтинг@Mail.ru