[ Сегодня на трекере фрилич! Идет свободное скачивание без начисления Download ]

Шаман-2 (2014) SATRip (1-4 серии из 32)

 

Создавать темы 29-Янв-2014 12:01

-Шаман-2 (2014) SATRip (1-4 серии из 32) - Год выпуска: 2014
Жанр: Драма, Криминал
Релиз группа: РиперАМ

Режиссер: Максим Кубринский
Актеры: Владимир Скворцов, Игорь Ботвин, Ян Цапник, Сергей Мардарь, Кирилл Щербина, Светлана Щедрина, Виталий Коваленко, Владимир Карпов, Евгений Катаев, Виталий Куклин, Анна Пескова, Анатолий Хропов, Алексей Лысенко, Константин Фисенко, Алексей Фокин, Михаил Сидаш, Тимофей Будкевич, Валерий Ошомков, Роман Павлушев, Юлия Сафонова, Алёна Старостина, Сергей Бадюк, Дарья Циберкина
Описание фильма:
У Шамана по-прежнему есть коллеги, азарт и работа, а также скверный характер и отличное чувство юмора. Он все так же любвеобилен – и красотки отвечают ему взаимностью. Однако после первого сезона «Шамана» в жизни Ивана Шаманова многое поменялось – он расстался с любимой женщиной, сын поступил в Университет МВД, главный враг – Корнеев, - сидит в тюрьме. Но теперь появляется адвокат Штольц, который становится костью в горле у Шамана. Ведь у Шамана всегда была и есть своя правда по отношению к преступникам. И если нужно, Шаман преступит закон в отношении к ним, но вор, убийца или насильник будут сидеть в тюрьме. А у Штольца своя правда. Он готов идти до конца в борьбе с шамановским произволом. Однажды наступает момент, когда Штольц сам не замечает, как переходит черту в борьбе с Шаманом. Но ведь и Шаману палец в рот не клади…
Продолжительность: 1 х ~ 00:46:00
Качество видео: SATRip
Видеокодек: Xvid
Битрейт видео: ~1700 kb/s
Размер кадра: 720 x 448
Аудиокодек: MP3
Битрейт аудио: 2 ch, 128 kb/s

MediaInfo

General
Complete name : E:\Фильмы\Шаман_2\Шаман2_серия_1.avi
Format : AVI
Format/Info : Audio Video Interleave
File size : 621 MiB
Duration : 44mn 54s
Overall bit rate : 1 933 Kbps
Writing application : VirtualDubMod 1.5.10.2 (build 2540/release)
Writing library : VirtualDub build 32507/release
Video
ID : 0
Format : MPEG-4 Visual
Format profile : Advanced [email protected]
Format settings, BVOP : 2
Format settings, QPel : No
Format settings, GMC : No warppoints
Format settings, Matrix : Default (MPEG)
Codec ID : XVID
Codec ID/Hint : XviD
Duration : 44mn 54s
Bit rate : 1 795 Kbps
Width : 720 pixels
Height : 448 pixels
Display aspect ratio : 16:10
Frame rate : 25.000 fps
Color space : YUV
Chroma subsampling : 4:2:0
Bit depth : 8 bits
Scan type : Progressive
Compression mode : Lossy
Bits/(Pixel*Frame) : 0.223
Stream size : 577 MiB (93%)
Writing library : XviD 64
Audio
ID : 1
Format : MPEG Audio
Format version : Version 1
Format profile : Layer 3
Mode : Joint stereo
Codec ID : 55
Codec ID/Hint : MP3
Duration : 44mn 54s
Bit rate mode : Constant
Bit rate : 128 Kbps
Channel count : 2 channels
Sampling rate : 48.0 KHz
Compression mode : Lossy
Stream size : 41.1 MiB (7%)
Alignment : Aligned on interleaves
Interleave, duration : 40 ms (1.00 video frame)
Interleave, preload duration : 504 ms

Внимание! Раздача ведётся путём добавления новых серий

Внимание! Раздача ведётся путём добавления новых серий; при каждом добавлении создаётся новый торрент.
Чтобы начать докачку новой серии, пользователям необходимо сделать следующее:
1. Остановить скачивание;
2. Удалить старый торрент у себя из клиента (старые серии удалять не надо);
3. Скачать новый торрент и запустить его у себя в клиенте вместо старого, при этом указать клиенту путь в старую папку куда и должно происходить скачивание новых серий. Ваш клиент при этом должен произвести хеширование (проверку) старой папки и будет докачивать только те серии, которых у вас ещё нет. Старые серии при этом не удаляются, а продолжают раздаваться! Eсли вы уже удалили старые серии, то предотвратить повторную закачку старых серий можно, отжав галочку в соответствующих местах при запуске нового торрента.
СКРИНШОТЫ
Яндекс.Метрика
Рейтинг@Mail.ru