Довольно слов / Enough Said (Николь Холофсенер / Nicole Holofcener) [2013 г., драма, мелодрама, комедия, HDRip] MVO [iTunes]

 

Создавать темы 07-Фев-2014 01:58

--Довольно слов / Enough Said- -Производство: США, Fox Searchlight Pictures
Год выпуска: 2013 г.
Жанр: драма, мелодрама, комедия
Продолжительность: 01:33:00--Мировая премьера: 7 сентября 2013
Дата выхода DVD: 20 февраля 2014, «Двадцатый Век Фокс СНГ»
Дата выхода Blu-Ray: 20 февраля 2014, «Двадцатый Век Фокс СНГ»--Перевод: Профессиональный (многоголосый, закадровый) [iTunes]--Режиссер: Николь Холофсенер / Nicole Holofcener--В ролях: Джулия Луис-Дрейфус, Джеймс Гандольфини, Кэтрин Кинер, Тони Коллетт, Бен Фэлкуон, Ленни Лофтин, Джессика Ст. Клер, Кристофер Николас Смит, Трэйси Фэирэуэй, Михаэлла Уоткинс--Описание: Ева развелась и столкнулась со сложным моментом в жизни — что делать дальше? Она знакомится с другим обаятельным мужчиной, который оказывается бывшим мужем женщины, которая всегда была для нее идеалом.--Качество видео: HDRip
Контейнер: AVI
Видео кодек: XviD
Аудио кодек: AC3
Видео: 720x384 (1.88:1), 23.976 fps, XviD build 50 ~1710 kbps avg, 0.26 bit/pixel
Аудио: 48 kHz, AC3 Dolby Digital, 3/2 (L,C,R,l,r) + LFE ch, ~384 kbps
Cубтитры: Отсутствуют

Media Info

Общее
Полное имя : H:\Torrent2\Dovolno.Slov.2013.D.HDRip.1400Mb_[pirat.ca].avi
Формат : AVI
Формат/Информация : Audio Video Interleave
Размер файла : 1,37 Гбайт
Продолжительность : 1 ч. 32 м.
Общий поток : 2104 Кбит/сек
Программа кодирования : VirtualDubMod 1.5.10.2 (build 2540/release)
Библиотека кодирования : VirtualDubMod build 2540/release
Видео
Идентификатор : 0
Формат : MPEG-4 Visual
Профиль формата : Advanced [email protected]
Параметр BVOP формата : 2
Параметр QPel формата : Нет
Параметр GMC формата : Без точки перехода
Параметр матрицы формата : Выборочная
Идентификатор кодека : XVID
Идентификатор кодека/Подсказка : XviD
Продолжительность : 1 ч. 32 м.
Битрейт : 1711 Кбит/сек
Ширина : 720 пикселей
Высота : 384 пикселя
Соотношение сторон : 1,85:1
Частота кадров : 23,976 кадра/сек
Цветовое пространство : YUV
Субдискретизация насыщенности : 4:2:0
Битовая глубина : 8 бит
Тип развёртки : Прогрессивная
Метод сжатия : С потерями
Бит/(Пиксели*Кадры) : 0.258
Размер потока : 1,11 Гбайт (81%)
Библиотека кодирования : XviD 1.2.1 (UTC 2008-12-04)
Аудио
Идентификатор : 1
Формат : AC-3
Формат/Информация : Audio Coding 3
Расширение режима : CM (complete main)
Параметр Endianness формата : Big
Идентификатор кодека : 2000
Продолжительность : 1 ч. 32 м.
Вид битрейта : Постоянный
Битрейт : 384 Кбит/сек
Каналы : 6 каналов
Расположение каналов : Front: L C R, Side: L R, LFE
Частота : 48,0 КГц
Битовая глубина : 16 бит
Метод сжатия : С потерями
Размер потока : 255 Мбайт (18%)
Выравнивание : Разделение по промежуткам
Продолжительность промежутка : 42 мс. (1,00 видеокадр)
Время предзагрузки промежутка : 500 мс.

Скриншоты

Трейлер
Яндекс.Метрика
Рейтинг@Mail.ru