Всех порву! / Revenge for Jolly! (Чадд Харбольд / Chadd Harbold) [2012 г., драма, комедия, HDRip] MVO [Лицензия]

 

Создавать темы 11-Фев-2014 06:32

--Всех порву! / Revenge for Jolly!- -Производство: США / Atlas Independent, A Saboteur
Год выпуска: 2012 г.
Жанр: драма, комедия
Продолжительность: 01:24:21--Мировая премьера: 21 апреля 2012
Релиз на DVD: 23 января 2014, «CD Land»--Перевод: Профессиональный (многоголосый, закадровый) [Лицензия]--Режиссер: Чадд Харбольд / Chadd Harbold--В ролях: Брайан Питсос, Оскар Айзек, Элайджа Вуд, Райан Филипп, Кристен Уиг, Адам Броди, Джиллиан Джейкобс, Бобби Мойнихэн мл., Кевин Корригэн, Дэвид Раш--Описание: Главный герой при помощи своего двоюродного брата собирается отомстить за смерть своей любимой собаки, которая была убита при странных обстоятельствах. Для поимки преступника герои проводят свое собственное расследование, сметая любые препятствия на своем пути.-- --Качество видео: HDRip
Контейнер: AVI
Видео кодек: XviD
Аудио кодек: AC3
Видео: 720x304 (2.37:1), 24 fps, XviD build 50 ~1925 kbps avg, 0.37 bit/pixel
Аудио: 48 kHz, AC3 Dolby Digital, 3/2 (L,C,R,l,r) + LFE ch, ~384 kbps
Cубтитры: Отсутствуют

Media Info

Общее
Полное имя : H:\Torrent2\Vseh.porvu.2012.P.HDRip.1400Mb_[pirat.ca].avi
Формат : AVI
Формат/Информация : Audio Video Interleave
Размер файла : 1,37 Гбайт
Продолжительность : 1 ч. 24 м.
Общий поток : 2319 Кбит/сек
Программа кодирования : VirtualDubMod 1.5.10.2 (build 2540/release)
Библиотека кодирования : VirtualDubMod build 2540/release
Видео
Идентификатор : 0
Формат : MPEG-4 Visual
Профиль формата : Advanced [email protected]
Параметр BVOP формата : 1
Параметр QPel формата : Нет
Параметр GMC формата : Без точки перехода
Параметр матрицы формата : Выборочная
Идентификатор кодека : XVID
Идентификатор кодека/Подсказка : XviD
Продолжительность : 1 ч. 24 м.
Битрейт : 1925 Кбит/сек
Ширина : 720 пикселей
Высота : 304 пикселя
Соотношение сторон : 2,35:1
Частота кадров : 24,000 кадра/сек
Цветовое пространство : YUV
Субдискретизация насыщенности : 4:2:0
Битовая глубина : 8 бит
Тип развёртки : Прогрессивная
Метод сжатия : С потерями
Бит/(Пиксели*Кадры) : 0.367
Размер потока : 1,13 Гбайт (83%)
Библиотека кодирования : XviD 1.2.1 (UTC 2008-12-04)
Аудио
Идентификатор : 1
Формат : AC-3
Формат/Информация : Audio Coding 3
Расширение режима : CM (complete main)
Параметр Endianness формата : Big
Идентификатор кодека : 2000
Продолжительность : 1 ч. 24 м.
Вид битрейта : Постоянный
Битрейт : 384 Кбит/сек
Каналы : 6 каналов
Расположение каналов : Front: L C R, Side: L R, LFE
Частота : 48,0 КГц
Битовая глубина : 16 бит
Метод сжатия : С потерями
Размер потока : 232 Мбайт (17%)
Выравнивание : Разделение по промежуткам
Продолжительность промежутка : 42 мс. (1,00 видеокадр)
Время предзагрузки промежутка : 500 мс.

Скриншоты

Трейлер
Яндекс.Метрика
Рейтинг@Mail.ru