Коралина в Стране Кошмаров / Coraline (Генри Селик / Henry Selick) [2008 г., мультфильм, фэнтези, триллер, BDRemux 1080p]

 

Создавать темы 11-Фев-2014 15:23

-Коралина в Стране Кошмаров / Coraline-- Производство: CША
Год выпуска: 2008 г.
Жанр: мультфильм, фэнтези, триллер
Продолжительность: 01:40:36
Мировая премьера: 5 февраля 2009
Российская премьера: 30 апреля 2009
Дата выхода DVD: 28 июля 2009
Дата выхода Blu-Ray: 14 июня 2011
Перевод: Профессиональный (полное дублирование)
Режиссер: Генри Селик-В ролях: Дакота Фаннинг, Тери Хэтчер, Дженнифер Сoндерс, Доун Френч, Кит Дэвид, Джон Гудман, Роберт Бэйли мл., Йен МакШейн-Описание: Коралина, маленькая девочка, попадает в другой мир, скрытый за секретной дверцей. Этот мир — ее альтернативная жизнь, которая не перестает ее радовать, все здесь хорошо, но только до поры до времени. Однажды она понимает, что ее настоящим родителям за ее проделки угрожает смертельная опасность. Коралине придется найти выход из мира, наполненного призраками, в реальную жизнь…-
Качество видео: Blu-Ray Remux
Контейнер: BDAV
Стандарт разрешения: 1080p
Видео кодек: VC-1
Аудио кодек: AC3+DTS-HDMA
Видео #1: VС-1 1920x1080 23.976fps ~19mbps VBR
Видео #2: VС-1 720Х480 23.976fps VBR
Аудио #1: Dolby AC3 5.1ch 384kbps(Русский дубляж)
Аудио #2: DTS-HDMA 5.1ch ~3.1mbps(Английский,Оригинал)
Аудио #3: Dolby AC3 2.0 192kbps(Комментарий Генри Селика,Английский)
Cубтитры: Russian(Надписи, DVD R5,PGS), Russian(Полные, Notabenoid,PGS), English(PGS)-

Media Info

Общее
Идентификатор : 1 (0x1)
Полное имя : Coraline.Bluray\BDMV\STREAM\00000.m2ts
Формат : BDAV
Формат/Информация : Blu-ray Video
Размер файла : 16,7 Гбайт
Продолжительность : 1 ч. 40 м.
Режим общего битрейта : Переменный
Общий поток : 23,7 Мбит/сек
Максимальный общий битрейт : 35,5 Мбит/сек
Видео #1
Идентификатор : 4113 (0x1011)
Идентификатор меню : 1 (0x1)
Формат : VC-1
Профиль формата : [email protected]
Идентификатор кодека : 234
Продолжительность : 1 ч. 40 м.
Ширина : 1920 пикселей
Высота : 1080 пикселей
Соотношение сторон : 16:9
Частота кадров : 23,976 кадра/сек
Цветовое пространство : YUV
Субдискретизация насыщенности : 4:2:0
Битовая глубина : 8 бит
Тип развёртки : Прогрессивная
Метод сжатия : С потерями
Видео #2
Идентификатор : 4114 (0x1012)
Идентификатор меню : 1 (0x1)
Формат : VC-1
Профиль формата : [email protected]
Идентификатор кодека : 234
Продолжительность : 1 ч. 40 м.
Ширина : 720 пикселей
Высота : 480 пикселей
Соотношение сторон : 4:3
Частота кадров : 23,976 кадра/сек
Стандарт вещания : NTSC
Цветовое пространство : YUV
Субдискретизация насыщенности : 4:2:0
Битовая глубина : 8 бит
Тип развёртки : Прогрессивная
Метод сжатия : С потерями
Аудио #1
Идентификатор : 4352 (0x1100)
Идентификатор меню : 1 (0x1)
Формат : AC-3
Формат/Информация : Audio Coding 3
Расширение режима : CM (complete main)
Параметр Endianness формата : Big
Идентификатор кодека : 129
Продолжительность : 1 ч. 40 м.
Вид битрейта : Постоянный
Битрейт : 384 Кбит/сек
Каналы : 6 каналов
Расположение каналов : Front: L C R, Side: L R, LFE
Частота : 48,0 КГц
Битовая глубина : 16 бит
Метод сжатия : С потерями
Размер потока : 276 Мбайт (2%)
Язык : Russian
Аудио #2
Идентификатор : 4353 (0x1101)
Идентификатор меню : 1 (0x1)
Формат : DTS
Формат/Информация : Digital Theater Systems
Профиль формата : MA / Core
Режим : 16
Параметр Endianness формата : Big
Режим смешивания : Stream extension
Идентификатор кодека : 134
Продолжительность : 1 ч. 40 м.
Вид битрейта : Переменный
Битрейт : Неизвестно / 1509 Кбит/сек
Каналы : 6 каналов
Расположение каналов : Front: L C R, Side: L R, LFE
Частота : 48,0 КГц
Битовая глубина : 24 бит
Метод сжатия : Без потерь / Lossy
Язык : English
Аудио #3
Идентификатор : 4354 (0x1102)
Идентификатор меню : 1 (0x1)
Формат : AC-3
Формат/Информация : Audio Coding 3
Профиль формата : Dolby Digital
Расширение режима : CM (complete main)
Параметр Endianness формата : Big
Идентификатор кодека : 129
Продолжительность : 1 ч. 40 м.
Вид битрейта : Постоянный
Битрейт : 192 Кбит/сек
Каналы : 2 канала
Расположение каналов : Front: L R
Частота : 48,0 КГц
Битовая глубина : 16 бит
Метод сжатия : С потерями
Размер потока : 138 Мбайт (1%)
Язык : English
Текст #1
Идентификатор : 4608 (0x1200)
Идентификатор меню : 1 (0x1)
Формат : PGS
Идентификатор кодека : 144
Язык : Russian
Текст #2
Идентификатор : 4609 (0x1201)
Идентификатор меню : 1 (0x1)
Формат : PGS
Идентификатор кодека : 144
Язык : Russian
Текст #3
Идентификатор : 4610 (0x1202)
Идентификатор меню : 1 (0x1)
Формат : PGS
Идентификатор кодека : 144
Язык : English

Скриншот c названием фильма

Скриншоты

Яндекс.Метрика
Рейтинг@Mail.ru