[ Сегодня на трекере фрилич! Идет свободное скачивание без начисления Download ]

XXII Зимние Олимпийские Игры Сочи 2014 / Фристайл, Могул / Женщины / Финал (ТВ канал - Россия 2) [2014 г., IPTVRip, TS]

 

Создавать темы 11-Фев-2014 21:37

XXII Зимние Олимпийские Игры Сочи 2014 / Фристайл, Могул / Женщины / ФиналЖаркие. Зимние. Твои.Официальный сайт "Сочи 2014" -Год выпуска: 8 февраля 2014 г.
Вид спорта: Фристайл
Продолжительность: 01:25:14
Комментатор: Владимир Стогниенко и Елена Ворона
Язык комментариев: русский
Автор рипа / записи: Димоны444-ТВ Канал: -Качество видео: TVRip
Контейнер: TS
Видео кодек: H.264
Аудио кодек: MP3
Видео: 1372 Кбит/сек; 720*576 (4:3); 25,000 кадров/сек; AVC; 0.165 бит/пиксель
Аудио: 128 Кбит/сек; 44,1 КГц; 2 канала; МР3

Media Info

Общее
Идентификатор : 42705 (0xA6D1)
Формат : MPEG-TS
Размер файла : 959 Мбайт
Продолжительность : 1 ч. 25 м.
Режим общего битрейта : Переменный
Общий поток : 1572 Кбит/сек
Видео
Идентификатор : 69 (0x45)
Идентификатор меню : 1 (0x1)
Формат : AVC
Формат/Информация : Advanced Video Codec
Профиль формата : [email protected]
Параметр CABAC формата : Да
Параметр ReFrames формата : 4 кадра
Идентификатор кодека : 27
Продолжительность : 1 ч. 25 м.
Битрейт : 1372 Кбит/сек
Ширина : 720 пикселей
Высота : 576 пикселей
Соотношение сторон : 4:3
Частота кадров : 25,000 кадров/сек
Стандарт вещания : PAL
Цветовое пространство : YUV
Субдискретизация насыщенности : 4:2:0
Битовая глубина : 8 бит
Тип развёртки : Прогрессивная
Бит/(Пиксели*Кадры) : 0.132
Размер потока : 832 Мбайт (87%)
Библиотека кодирования : x264 core 119 r2106 07efeb4
Настройки программы : cabac=1 / ref=1 / deblock=1:-1:-1 / analyse=0x3:0x13 / me=dia / subme=1 / psy=1 / psy_rd=1.00:0.15 / mixed_ref=0 / me_range=16 / chroma_me=1 / trellis=0 / 8x8dct=1 / cqm=0 / deadzone=21,11 / fast_pskip=1 / chroma_qp_offset=0 / threads=6 / sliced_threads=0 / nr=0 / decimate=1 / interlaced=0 / bluray_compat=0 / constrained_intra=0 / bframes=3 / b_pyramid=2 / b_adapt=1 / b_bias=0 / direct=1 / weightb=1 / open_gop=0 / weightp=1 / keyint=60 / keyint_min=6 / scenecut=40 / intra_refresh=0 / rc_lookahead=0 / rc=cbr / mbtree=0 / bitrate=1372 / ratetol=1.0 / qcomp=0.60 / qpmin=10 / qpmax=51 / qpstep=4 / vbv_maxrate=1372 / vbv_bufsize=1500 / nal_hrd=none / ip_ratio=1.40 / pb_ratio=1.30 / aq=1:1.00
Аудио
Идентификатор : 68 (0x44)
Идентификатор меню : 1 (0x1)
Формат : MPEG Audio
Версия формата : Version 1
Профиль формата : Layer 3
Режим : Joint stereo
Расширение режима : MS Stereo
Идентификатор кодека : 3
Продолжительность : 1 ч. 25 м.
Вид битрейта : Постоянный
Битрейт : 128 Кбит/сек
Каналы : 2 канала
Частота : 44,1 КГц
Метод сжатия : С потерями
Задержка видео : 1 мс.
Размер потока : 78,0 Мбайт (8%)
Язык : Russian

Скриншоты

Яндекс.Метрика
Рейтинг@Mail.ru