Младенец на прогулке, или Ползком от гангстеров / Baby's Day Out (Патрик Рид Джонсон / Patrick Read Johnson) [1994 г., драма, комедия, криминал, приключения, WEB-DLRip-AVC] MVO (R5, Первый канал) + DVO (Laser Video, Ren TV) + Original (Eng) + Su

 

Создавать темы 15-Фев-2014 16:11

-Младенец на прогулке, или Ползком от гангстеров / Baby's Day Out- Год выпуска: 1994 г.
Производство: США
Жанр: драма, комедия, криминал, приключения
Продолжительность: 01:38:50
Перевод 1: Профессиональный (многоголосый, закадровый) R5
Перевод 2: Профессиональный (двухголосый, закадровый) Laser Video
Перевод 3: Профессиональный (многоголосый, закадровый) Первый канал
Перевод 4: Профессиональный (двухголосый, закадровый) Ren TV
Оригинальный аудиопоток: английский
Режиссер: Патрик Рид Джонсон / Patrick Read Johnson
В ролях: Джо Мантенья, Лара Флинн Бойл, Джо Пантольяно, Брайан Хейли, Синтия Никсон, Фред Долтон Томпсон, Джон Невилл, Мэттью Глэйв, Адам Роберт Уортон, Джейкоб Джозеф Уортон
Описание: Малыш Бинк путешествует по городу весь день: необычные места, потрясающие виды, но он гуляет совершенно один! Отчаянно разыскиваемый собственными родителями, ставший знаменитым, благодаря прессе, малыш противостоит группе гангстеров, охотящихся за ним ради денег, предложенных его богатыми родителями. Невозмутимый, собранный и абсолютно не сознающий всех разрушений, которые он производит, малыш создаст столько неприятностей бандитам, что никаких денег им не захочется!Качество видео: WEB-DLRip-AVC
Контейнер: MKV
Видео кодек: H.264
Аудио кодек: AC3
Видео: MPEG4 Video (H264) 976x528 23.976fps 1815 Kbps
Аудио 1: Dolby AC3 48000Hz 6ch 384 Kbps / R5
Аудио 2: Dolby AC3 48000Hz 2ch 192 Kbps / Laser Video
Аудио 3: Dolby AC3 48000Hz 2ch 192 Kbps / Первый канал
Аудио 4: Dolby AC3 48000Hz 1ch 192 Kbps / Ren TV
Аудио 5: Dolby AC3 48000Hz 6ch 384 Kbps / Английский
Субтитры: русские, английские (отключаемые)
В переводе 1 канала и Рен-ТВ были пропуски, они заменены другим переводом.

Media Info / x.264

Log 2-nd pass

x264 [info]: using SAR=1/1
x264 [info]: using cpu capabilities: MMX2 SSE2Fast SSSE3 Cache64 SlowShuffle
x264 [info]: profile High, level 4.1
x264 [info]: frame I:1382 Avg QP:17.03 size: 77293
x264 [info]: frame P:37960 Avg QP:19.82 size: 20339
x264 [info]: frame B:102824 Avg QP:23.12 size: 4529
x264 [info]: consecutive B-frames: 2.7% 5.8% 6.4% 67.8% 7.9% 6.9% 1.2% 1.0% 0.5%
x264 [info]: mb I I16..4: 5.9% 75.1% 19.0%
x264 [info]: mb P I16..4: 2.3% 10.1% 1.6% P16..4: 45.7% 18.3% 14.7% 0.5% 0.2% skip: 6.6%
x264 [info]: mb B I16..4: 0.2% 1.0% 0.2% B16..8: 40.7% 7.2% 1.7% direct: 4.1% skip:44.9% L0:38.5% L1:49.1% BI:12.4%
x264 [info]: 8x8 transform intra:72.6% inter:62.7%
x264 [info]: direct mvs spatial:99.0% temporal:1.0%
x264 [info]: coded y,uvDC,uvAC intra: 76.7% 63.2% 25.5% inter: 20.2% 13.8% 0.5%
x264 [info]: i16 v,h,dc,p: 29% 19% 9% 43%
x264 [info]: i8 v,h,dc,ddl,ddr,vr,hd,vl,hu: 11% 10% 5% 9% 13% 14% 13% 12% 13%
x264 [info]: i4 v,h,dc,ddl,ddr,vr,hd,vl,hu: 14% 11% 4% 8% 14% 14% 13% 11% 12%
x264 [info]: i8c dc,h,v,p: 40% 26% 21% 13%
x264 [info]: Weighted P-Frames: Y:4.6% UV:0.9%
x264 [info]: ref P L0: 55.8% 14.2% 16.3% 5.3% 4.4% 3.6% 0.4% 0.0%
x264 [info]: ref B L0: 85.4% 8.8% 3.8% 1.3% 0.6%
x264 [info]: ref B L1: 95.0% 5.0%
x264 [info]: kb/s:1814.10
x264 [total]: encoded 142166 frames, 3.33 fps, 1814.10 kb/s
Общее
Уникальный идентификатор : 224529382811173717233183411743862422132 (0xA8EAC942C52BEB1AAA67A77485B1FA74)
Полное имя : G:\Baby.Day.Out.1994.WEB-DLRip-AVC.JRG.mkv
Формат : Matroska
Версия формата : Version 4 / Version 2
Размер файла : 2,18 Гбайт
Продолжительность : 1 ч. 38 м.
Общий поток : 3161 Кбит/сек
Название фильма : erchine by Pirat.CA
Дата кодирования : UTC 2014-02-06 17:19:14
Программа кодирования : mkvmerge v6.6.0 ('The Edge Of The In Between') built on Dec 1 2013 17:55:00
Библиотека кодирования : libebml v1.3.0 + libmatroska v1.4.1
Видео
Идентификатор : 1
Формат : AVC
Формат/Информация : Advanced Video Codec
Профиль формата : [email protected]
Параметр CABAC формата : Да
Параметр ReFrames формата : 6 кадров
Идентификатор кодека : V_MPEG4/ISO/AVC
Продолжительность : 1 ч. 38 м.
Битрейт : 1815 Кбит/сек
Ширина : 976 пикселей
Высота : 528 пикселей
Соотношение сторон : 1,85:1
Режим частоты кадров : Постоянный
Частота кадров : 23,976 кадра/сек
Цветовое пространство : YUV
Субдискретизация насыщенности : 4:2:0
Битовая глубина : 8 бит
Тип развёртки : Прогрессивная
Бит/(Пиксели*Кадры) : 0.147
Размер потока : 1,21 Гбайт (55%)
Библиотека кодирования : x264 core 130 r2273 b3065e6
Настройки программы : cabac=1 / ref=6 / deblock=1:0:0 / analyse=0x3:0x133 / me=umh / subme=9 / psy=1 / psy_rd=1.00:0.00 / mixed_ref=1 / me_range=32 / chroma_me=1 / trellis=2 / 8x8dct=1 / cqm=0 / deadzone=21,11 / fast_pskip=0 / chroma_qp_offset=-2 / threads=3 / lookahead_threads=1 / sliced_threads=0 / nr=0 / decimate=1 / interlaced=0 / bluray_compat=0 / constrained_intra=0 / bframes=8 / b_pyramid=2 / b_adapt=2 / b_bias=0 / direct=3 / weightb=1 / open_gop=0 / weightp=2 / keyint=250 / keyint_min=23 / scenecut=40 / intra_refresh=0 / rc_lookahead=50 / rc=2pass / mbtree=1 / bitrate=1815 / ratetol=1.0 / qcomp=0.60 / qpmin=0 / qpmax=69 / qpstep=4 / cplxblur=20.0 / qblur=0.5 / ip_ratio=1.40 / aq=1:1.00
Язык : English
Default : Да
Forced : Нет
Аудио #1
Идентификатор : 2
Формат : AC-3
Формат/Информация : Audio Coding 3
Расширение режима : CM (complete main)
Параметр Endianness формата : Big
Идентификатор кодека : A_AC3
Продолжительность : 1 ч. 38 м.
Вид битрейта : Постоянный
Битрейт : 384 Кбит/сек
Каналы : 6 каналов
Расположение каналов : Front: L C R, Side: L R, LFE
Частота : 48,0 КГц
Битовая глубина : 16 бит
Метод сжатия : С потерями
Размер потока : 271 Мбайт (12%)
Заголовок : MVO - R5
Язык : Russian
Default : Да
Forced : Нет
Аудио #2
Идентификатор : 3
Формат : AC-3
Формат/Информация : Audio Coding 3
Расширение режима : CM (complete main)
Параметр Endianness формата : Big
Идентификатор кодека : A_AC3
Продолжительность : 1 ч. 38 м.
Вид битрейта : Постоянный
Битрейт : 192 Кбит/сек
Каналы : 2 канала
Расположение каналов : Front: L R
Частота : 48,0 КГц
Битовая глубина : 16 бит
Метод сжатия : С потерями
Размер потока : 136 Мбайт (6%)
Заголовок : DVO - LaserVideo
Язык : Russian
Default : Нет
Forced : Нет
Аудио #3
Идентификатор : 4
Формат : AC-3
Формат/Информация : Audio Coding 3
Расширение режима : CM (complete main)
Параметр Endianness формата : Big
Идентификатор кодека : A_AC3
Продолжительность : 1 ч. 38 м.
Вид битрейта : Постоянный
Битрейт : 192 Кбит/сек
Каналы : 2 канала
Расположение каналов : Front: L R
Частота : 48,0 КГц
Битовая глубина : 16 бит
Метод сжатия : С потерями
Размер потока : 136 Мбайт (6%)
Заголовок : MVO - 1 kanal
Язык : Russian
Default : Нет
Forced : Нет
Аудио #4
Идентификатор : 5
Формат : AC-3
Формат/Информация : Audio Coding 3
Расширение режима : CM (complete main)
Параметр Endianness формата : Big
Идентификатор кодека : A_AC3
Продолжительность : 1 ч. 38 м.
Вид битрейта : Постоянный
Битрейт : 192 Кбит/сек
Каналы : 1 канал
Расположение каналов : Front: C
Частота : 48,0 КГц
Битовая глубина : 16 бит
Метод сжатия : С потерями
Размер потока : 136 Мбайт (6%)
Заголовок : DVO - Ren TV
Язык : Russian
Default : Нет
Forced : Нет
Аудио #5
Идентификатор : 6
Формат : AC-3
Формат/Информация : Audio Coding 3
Расширение режима : CM (complete main)
Параметр Endianness формата : Big
Идентификатор кодека : A_AC3
Продолжительность : 1 ч. 38 м.
Вид битрейта : Постоянный
Битрейт : 384 Кбит/сек
Каналы : 6 каналов
Расположение каналов : Front: L C R, Side: L R, LFE
Частота : 48,0 КГц
Битовая глубина : 16 бит
Метод сжатия : С потерями
Размер потока : 271 Мбайт (12%)
Заголовок : Eng
Язык : English
Default : Нет
Forced : Нет
Текст #1
Идентификатор : 7
Формат : UTF-8
Идентификатор кодека : S_TEXT/UTF8
Идентификатор кодека/Информация : UTF-8 Plain Text
Язык : Russian
Default : Нет
Forced : Нет
Текст #2
Идентификатор : 8
Формат : UTF-8
Идентификатор кодека : S_TEXT/UTF8
Идентификатор кодека/Информация : UTF-8 Plain Text
Язык : English
Default : Нет
Forced : Нет

Скриншоты

Яндекс.Метрика
Рейтинг@Mail.ru