ХХII Зимние Олимпийские Игры Сочи 2014 / Хоккей на льду, Предварительный раунд / Мужчины / Финляндия - Австрия / Группа В (СПОРТХИТ - Денис Казанский) [13.02.2014 г., DVB, MPG, RU]

 

Создавать темы 16-Фев-2014 02:33

ХХII Зимние Олимпийские Игры Сочи 2014 /
Хоккей на льду, Предварительный раунд / Мужчины / Финляндия - Австрия / Группа В
Жаркие. Зимние. Твои.Официальный сайт "Сочи 2014" -Год выпуска: 13.02.2014 г.
Вид спорта: Хоккей на льду
Участники: Финляндия - Австрия (Мужчины)
Продолжительность: 02:10:00
Комментатор: Денис Казанский
Язык комментариев: русский
Автор рипа / записи: Arsenal15-ТВ Канал: -Арена: Шайба (Сочи, Россия) 13 февраля 2014 года, четверг. 10:00 Киев-Качество видео: DVB
Контейнер: MPG
Видео кодек: MPEG
Аудио кодек: MP2
Видео: 5120 Кбит/сек; 720*576 (16:9); 25,000 кадров/сек; MPEG; 0.494 Бит/Пиксели
Аудио: 224 Кбит/сек; 48,0 КГц; 2 канала; MP2
[url=http://pirat.ca/viewtopic.php?t=126668][/url]Хоккей на льду. Расписание и результаты. Скачать.

Составы команд

Финляндия: Туукка Раск (Кари Лехтонен), Киммо Тимонен — Сами Ватанен — Теему Селянне — Александр Барков — Микаэль Гранлунд, Олли Мяяття — Сами Сало — Олли Йокинен — Туомо Рууту — Лаури Корпикоски, Сами Лепистё — Юусо Хиетанен — Петри Контиола — Юсси Йокинен — Юхаматти Аалтонен, Осси Вяянянен — Лассе Кукконен — Йори Лехтеря — Яркко Иммонен — Леонид Комаров.
Главный тренер: Эркка Вестерлунд.-Австрия: Бернхард Штаркбаум (Рене Светте), Маттиас Траттниг — Андре Лакос — Томас Кох — Томас Ванек — Оливер Зетцингер, Штефан Ульмер — Томас Пёк — Михаэль Раффль — Михаэль Грабнер — Брайан Леблер, Герхард Унтерлуггауэр — Флориан Иберер — Томас Раффль — Андреас Нодль — Томас Хундертпфунд, Марио Альтман — Роберт Лукас — Даниэль Оберкофлер — Мануэль Латуза — Даниэль Вельзер.
Главный тренер: Эмануэль Вивайрос.-Главный судья: Даниэль Пехачек (Германия), Иан Уолш (США).

Media Info

Общее
Формат : MPEG-PS
Размер файла : 4,93 Гбайт
Продолжительность : 2 ч. 10 м.
Общий поток : 5431 Кбит/сек
Видео
Идентификатор : 224 (0xE0)
Формат : MPEG Video
Версия формата : Version 2
Профиль формата : [email protected]
Параметр BVOP формата : Да
Параметр матрицы формата : По умолчанию
Параметр GOP формата : M=3, N=15
Продолжительность : 2 ч. 10 м.
Битрейт : 5120 Кбит/сек
Ширина : 720 пикселей
Высота : 576 пикселей
Соотношение сторон : 16:9
Частота кадров : 25,000 кадров/сек
Стандарт вещания : PAL
Цветовое пространство : YUV
Субдискретизация насыщенности : 4:2:0
Битовая глубина : 8 бит
Тип развёртки : Прогрессивная
Порядок развёртки : Верхнее поле первое
Метод сжатия : С потерями
Бит/(Пиксели*Кадры) : 0.494
Временной код первого кадра : 00:00:00:13
Оригинал временного кода : Group of pictures header
Размер потока : 4,63 Гбайт (94%)
Основные цвета : BT.601 PAL
Характеристики трансфера : BT.470 System B, BT.470 System G
Коэффициенты матрицы : BT.601
Аудио
Идентификатор : 192 (0xC0)
Формат : MPEG Audio
Версия формата : Version 1
Профиль формата : Layer 2
Продолжительность : 2 ч. 10 м.
Вид битрейта : Постоянный
Битрейт : 224 Кбит/сек
Каналы : 2 канала
Частота : 48,0 КГц
Метод сжатия : С потерями
Задержка видео : -201 мс.
Размер потока : 208 Мбайт (4%)

Скриншоты

Яндекс.Метрика
Рейтинг@Mail.ru