Сказания Земноморья / Gedo senki (Горо Миядзаки / Goro Miyazaki) [2006 г., аниме, мультфильм, фэнтези, приключения, BDRip-AVC] Dub + Original (JAP) + Sub (Rus, Eng) [Jolly Roger]

 

Создавать темы 04-Мар-2014 02:06

-Сказания Земноморья / Gedo senki- Год выпуска: 2006 г.
Производство: Япония
Жанр: аниме, мультфильм, фэнтези, приключения
Продолжительность: 01:55:32
Перевод: Профессиональный (полное дублирование)
Оригинальный аудиопоток: японский
Режиссер: Горо Миядзаки / Goro Miyazaki
В ролях: Джуничи Окада, Аой Тешима, Бунта Сугавара, Юко Танака, Теруюки Кагава, Джан Фубуки, Такаши Найто, Мицуко Байсё, Юи Нацукава, Каору Кобаяси

Описание: Горы, пещеры и замки сказочной страны, драконы и амулеты, заклинания и пророчества, маги и принцы, жрицы и убийцы, злодеи и праведники — в новой приключенческой анимационной фэнтази-саге о волшебном мире Земноморья.
Земноморье в опасности, мир волшебства на грани исчезновения. Вселенское равновесие нарушено: драконы, обитающие в западном пределе сказочной страны, неожиданно появляются на востоке во владениях людей. Верховный маг Гед отправляется на поиски первопричины беды. В пути он встречает Аррена, принца Энлада, который после свершения страшного греха, убийства отца, бежит из родного края, преследуемый тенью.
Прибыв в столицу Земноморья Норт Таун, путники находят пристанище в доме Белой Дамы, бывшей жрицы-хранительницы темных Гробниц Атуана. Верховный Маг Гед открывает Аррену тайны жизни и смерти, правды и лжи. Призывая служить истине с полной самоотдачей, он словно передает эстафету дерзновенному юноше, которому предначертана особая миссия в этом мире. Но успеют ли они противостать силам зла? Или уже слишком поздно…
Качество видео: BDRip-AVC
Контейнер: MKV
Видео кодек: H.264
Аудио кодек: AC3
Видео: MPEG4 Video (H264) 864x464 23.976fps 1151 Kbps
Аудио 1: Dolby AC3 48000Hz 6ch 448 Kbps / Русский
Аудио 2: Dolby AC3 48000Hz 2ch 192 Kbps / Японский
Субтитры: русские, английские (отключаемые)

Media Info / x.264

Log 2-nd pass

x264 [info]: using SAR=1/1
x264 [info]: using cpu capabilities: MMX2 SSE2Fast SSSE3 Cache64 SlowShuffle
x264 [info]: profile High, level 4.1
x264 [info]: frame I:1232 Avg QP: 9.22 size: 97926
x264 [info]: frame P:37974 Avg QP:13.16 size: 16473
x264 [info]: frame B:127013 Avg QP:17.65 size: 1978
x264 [info]: consecutive B-frames: 2.2% 4.4% 5.0% 35.4% 11.9% 24.9% 7.1% 7.1% 1.9%
x264 [info]: mb I I16..4: 28.0% 9.0% 63.0%
x264 [info]: mb P I16..4: 2.3% 1.4% 3.7% P16..4: 41.5% 11.5% 18.5% 1.8% 0.9% skip:18.3%
x264 [info]: mb B I16..4: 0.2% 0.1% 0.2% B16..8: 27.2% 4.6% 1.4% direct: 1.1% skip:65.2% L0:51.6% L1:41.4% BI: 7.1%
x264 [info]: 8x8 transform intra:16.2% inter:13.2%
x264 [info]: direct mvs spatial:96.6% temporal:3.4%
x264 [info]: coded y,uvDC,uvAC intra: 72.5% 55.3% 42.7% inter: 10.2% 4.3% 2.3%
x264 [info]: i16 v,h,dc,p: 25% 14% 47% 14%
x264 [info]: i8 v,h,dc,ddl,ddr,vr,hd,vl,hu: 14% 19% 33% 5% 4% 4% 5% 6% 9%
x264 [info]: i4 v,h,dc,ddl,ddr,vr,hd,vl,hu: 19% 15% 29% 6% 6% 6% 6% 6% 8%
x264 [info]: i8c dc,h,v,p: 49% 28% 16% 7%
x264 [info]: Weighted P-Frames: Y:2.2% UV:1.3%
x264 [info]: ref P L0: 48.6% 2.9% 15.7% 10.6% 7.5% 8.1% 6.1% 0.5% 0.0%
x264 [info]: ref B L0: 63.9% 13.0% 10.5% 6.2% 4.2% 2.2%
x264 [info]: ref B L1: 90.8% 9.2%
x264 [info]: kb/s:1150.97
x264 [total]: encoded 166219 frames, 4.66 fps, 1150.97 kb/s
Общее
Уникальный идентификатор : 184464386172567642973708107925783293160 (0x8AC68C6A839AC0489CEC03839E47ACE8)
Полное имя : H:\Tales.from.Earthsea.2006.H.264.BDRip-AVC.JRG.mkv
Формат : Matroska
Версия формата : Version 4 / Version 2
Размер файла : 1,45 Гбайт
Продолжительность : 1 ч. 55 м.
Общий поток : 1793 Кбит/сек
Название фильма : The Jolly Roger Release Group by
Дата кодирования : UTC 2014-02-25 17:18:20
Программа кодирования : mkvmerge v6.6.0 ('The Edge Of The In Between') built on Dec 1 2013 17:55:00
Библиотека кодирования : libebml v1.3.0 + libmatroska v1.4.1
Видео
Идентификатор : 1
Формат : AVC
Формат/Информация : Advanced Video Codec
Профиль формата : [email protected]
Параметр CABAC формата : Да
Параметр ReFrames формата : 7 кадров
Идентификатор кодека : V_MPEG4/ISO/AVC
Продолжительность : 1 ч. 55 м.
Битрейт : 1151 Кбит/сек
Ширина : 864 пикселя
Высота : 464 пикселя
Соотношение сторон : 1,85:1
Режим частоты кадров : Постоянный
Частота кадров : 23,976 кадра/сек
Цветовое пространство : YUV
Субдискретизация насыщенности : 4:2:0
Битовая глубина : 8 бит
Тип развёртки : Прогрессивная
Бит/(Пиксели*Кадры) : 0.120
Размер потока : 923 Мбайт (62%)
Библиотека кодирования : x264 core 130 r2273 b3065e6
Настройки программы : cabac=1 / ref=7 / deblock=1:0:0 / analyse=0x3:0x133 / me=umh / subme=10 / psy=0 / mixed_ref=1 / me_range=24 / chroma_me=1 / trellis=2 / 8x8dct=1 / cqm=0 / deadzone=21,11 / fast_pskip=0 / chroma_qp_offset=0 / threads=3 / lookahead_threads=1 / sliced_threads=0 / nr=0 / decimate=1 / interlaced=0 / bluray_compat=0 / constrained_intra=0 / bframes=8 / b_pyramid=2 / b_adapt=2 / b_bias=0 / direct=3 / weightb=1 / open_gop=0 / weightp=2 / keyint=250 / keyint_min=23 / scenecut=40 / intra_refresh=0 / rc_lookahead=50 / rc=2pass / mbtree=1 / bitrate=1151 / ratetol=1.0 / qcomp=0.60 / qpmin=0 / qpmax=69 / qpstep=4 / cplxblur=20.0 / qblur=0.5 / ip_ratio=1.40 / aq=1:1.00
Default : Да
Forced : Нет
Аудио #1
Идентификатор : 2
Формат : AC-3
Формат/Информация : Audio Coding 3
Расширение режима : CM (complete main)
Параметр Endianness формата : Big
Идентификатор кодека : A_AC3
Продолжительность : 1 ч. 55 м.
Вид битрейта : Постоянный
Битрейт : 448 Кбит/сек
Каналы : 6 каналов
Расположение каналов : Front: L C R, Side: L R, LFE
Частота : 48,0 КГц
Битовая глубина : 16 бит
Метод сжатия : С потерями
Размер потока : 370 Мбайт (25%)
Язык : Russian
Default : Да
Forced : Нет
Аудио #2
Идентификатор : 3
Формат : AC-3
Формат/Информация : Audio Coding 3
Расширение режима : CM (complete main)
Параметр Endianness формата : Big
Идентификатор кодека : A_AC3
Продолжительность : 1 ч. 55 м.
Вид битрейта : Постоянный
Битрейт : 192 Кбит/сек
Каналы : 2 канала
Расположение каналов : Front: L R
Частота : 48,0 КГц
Битовая глубина : 16 бит
Метод сжатия : С потерями
Размер потока : 159 Мбайт (11%)
Язык : Japanese
Default : Нет
Forced : Нет
Текст #1
Идентификатор : 4
Формат : UTF-8
Идентификатор кодека : S_TEXT/UTF8
Идентификатор кодека/Информация : UTF-8 Plain Text
Язык : Russian
Default : Нет
Forced : Нет
Текст #2
Идентификатор : 5
Формат : UTF-8
Идентификатор кодека : S_TEXT/UTF8
Идентификатор кодека/Информация : UTF-8 Plain Text
Язык : English
Default : Нет
Forced : Нет

Скриншоты

Яндекс.Метрика
Рейтинг@Mail.ru