NG: Суперсооружения: Мегазаводы. Форд-150 / Megafactories: Ford 150 (Милт Вэйс / Milt Weiss) [2011 г., Документальный, научно-познавательный, техника, строительство, HDTVRip]

 

Создавать темы 01-Окт-2013 09:06

NG: Суперсооружения: Мегазаводы. Форд-150 / Megafactories: Ford 150
Год выпуска: 2011 г.
Страна: США, National Geographic Channel
Жанр: Документальный, научно-познавательный, техника, строительство
Продолжительность: 00:44:56
Перевод: Одноголосый закадровый - Александр Гаврилин
Cубтитры: нет
Режиссер: Милт Вэйс / Milt Weiss
Описание: Это новый пикап Форд F-150. Двенадцатое поколение пикапов, выпускающихся уже почти 60 лет. Когда автоиндустрия США переживала кризис, модель F-150 помогла «форду» пережить трудные времена. Эта машина способна вести груз в кузове, на прицепе, но она может и порезвиться. "Мы собираем все виды F-150: от скромных рабочих лошадок до практически автомобилей класса люкс". И собираются они здесь — на мегазаводе «Форд».
Качество видео: HDTVRip
Формат видео: AVI
Видео кодек: XviD
Аудио кодек: AC3
Видео: 720х400 25.00fps 1800kbps
Аудио: AC3 2ch, 48kHz, 192 kbps

Скриншоты


MediaInfo:

Формат : AVI
Формат/Информация : Audio Video Interleave
Размер файла : 643 Мбайт
Продолжительность : 44 м.
Общий поток : 2001 Кбит/сек
Программа кодирования : VirtualDubMod 1.5.10.3 | www.virtualdub-fr.org || (build 2550/release)
Библиотека кодирования : VirtualDubMod build 2550/release
Видео
Идентификатор : 0
Формат : MPEG-4 Visual
Профиль формата : Advanced [email protected]
Параметр BVOP формата : 2
Параметр QPel формата : Нет
Параметр GMC формата : Без точки перехода
Параметр матрицы формата : Default (H.263)
Идентификатор кодека : XVID
Идентификатор кодека/Подсказка : XviD
Продолжительность : 44 м.
Битрейт : 1800 Кбит/сек
Ширина : 720 пикселей
Высота : 400 пикселей
Соотношение сторон : 16:9
Частота кадров : 25,000 кадров/сек
Цветовое пространство : YUV
Субдискретизация насыщенности : 4:2:0
Битовая глубина : 8 бит
Тип развёртки : Прогрессивная
Метод сжатия : С потерями
Бит/(Пиксели*Кадры) : 0.250
Размер потока : 579 Мбайт (90%)
Библиотека кодирования : XviD 1.2.1 (UTC 2008-12-04)
Аудио
Идентификатор : 1
Формат : AC-3
Формат/Информация : Audio Coding 3
Расширение режима : CM (complete main)
Параметр Endianness формата : Big
Идентификатор кодека : 2000
Продолжительность : 44 м.
Вид битрейта : Постоянный
Битрейт : 192 Кбит/сек
Каналы : 2 канала
Расположение каналов : Front: L R
Частота : 48,0 КГц
Битовая глубина : 16 бит
Метод сжатия : С потерями
Размер потока : 61,7 Мбайт (10%)
Выравнивание : Разделение по промежуткам
Продолжительность промежутка : 40 мс. (1,00 видеокадр)
Время предзагрузки промежутка : 500 мс.

Суперсооружения на канале National Geographic

Создавать темы 01-Окт-2013 10:04 (спустя 58 минут)

vladios13,
aa
Яндекс.Метрика
Рейтинг@Mail.ru