Поход в Припять [2013 г., Документальный, Любительское видео]

 

Создавать темы 10-Апр-2014 20:21

Поход в Припять
Год выпуска: 2013
Жанр: Документальный, Любительское видео
Продолжительность: 4:06:44
Описание: 55 километров. Таков наш путь от машины до Припяти. Под угрозой напороться на охрану, пограничников, диких животных и радиоактивные бяки. И посещение Припяти.

MI

Формат : MPEG-4
Профиль формата : Base Media
Идентификатор кодека : isom
Размер файла : 529 Мбайт
Продолжительность : 31 м.
Общий поток : 2332 Кбит/сек
Программа кодирования : Lavf55.12.100
Видео
Идентификатор : 2
Формат : AVC
Формат/Информация : Advanced Video Codec
Профиль формата : [email protected]
Параметр CABAC формата : Да
Параметр ReFrames формата : 1 кадр
Параметр GOP формата : M=1, N=60
Идентификатор кодека : avc1
Идентификатор кодека/Информация : Advanced Video Coding
Продолжительность : 31 м.
Битрейт : 2181 Кбит/сек
Ширина : 1280 пикселей
Высота : 720 пикселей
Соотношение сторон : 16:9
Режим частоты кадров : Постоянный
Частота кадров : 30,000 кадров/сек
Цветовое пространство : YUV
Субдискретизация насыщенности : 4:2:0
Битовая глубина : 8 бит
Тип развёртки : Прогрессивная
Бит/(Пиксели*Кадры) : 0.079
Размер потока : 495 Мбайт (94%)
Аудио
Идентификатор : 1
Формат : AAC
Формат/Информация : Advanced Audio Codec
Профиль формата : LC
Идентификатор кодека : 40
Продолжительность : 31 м.
Вид битрейта : Постоянный
Битрейт : 144 Кбит/сек
Каналы : 2 канала
Channel(s)_Original : 1 канал
Расположение каналов : Front: C
Частота : 44,1 КГц
Метод сжатия : С потерями
Размер потока : 32,7 Мбайт (6%)

Скриншоты

Яндекс.Метрика
Рейтинг@Mail.ru