Футбол. Чемпионат Мира 2014. 1/2 финала. Бразилия - Германия (2014) HDTVRip [H.264/720p] [hand made 50fps]

 

Создавать темы 09-Июл-2014 15:21

Футбол. Чемпионат Мира 2014. 1/2 финала. Бразилия - Германия HDTVRip- Режиссер / Телекомпания:

Год выпуска: 2014
Жанр: Спорт, Футбол
Комментарий: Владимир Стогниенко
Описание:
Луис Фелипе Сколари
, главный тренер сборной Бразилии: «Сборная Германии сильна на каждом участке поля, а не только в полузащите. У них также сильны защита и нападение. Мы выиграли в 2002 году у немцев, но я проиграл им в 2008 с командой Португалии, проигрывал им в 2006 году. Так что у меня одна победа и два поражения, только победа поможет мне сравнять счет. Мы знали, что придется встретиться с немцами на пути к финалу. Мы уважаем сборную Германии и постараемся сделать так, чтобы и соперник нас уважал».
Йоахим Лёв, главный тренер сборной Германии: «Это битва континентов. Две европейские сборные против латиноамериканских в полуфиналах ЧМ. Бразильцев будут поддерживать 200 млн болельщиков, это особая энергетика. За спиной сборной Бразилии стоит вся страна. Но мы уверены в себе, в том, что мы способны сделать то, что должны. У нас совсем не маленькие шансы на успех».
В матче Бразилии и Германии букмекеры дают больше шансов гостям - на победу хозяев в основное время предлагается коэффициент 2,85, на ничью - 3,25, а на победу Бундестима - 2,8. Также аналитики считают, что в полуфинале будет забито немного мячей - менее трех, 1,615 против 2,52 за три гола и больше. Выше шансы Германии и на выход в следующий круг - 1,81 против 2,06 у Бразилии. Интересно, что наиболее вероятным исходом поединка букмекеры считают 1:1 (коэффициент 6,8), менее вероятен счет 0:0 (7,1), а минимальная победа одной из команд (1:0 или 0:1) оценивается в 7,8.

Продолжительность: 01:57:41
Качество видео: HDTVRip
Видеокодек: AVC/H.264
Битрейт видео: 3960 Kb/s
Размер кадра: 1280x720 (16:9), 50 fps
Аудиокодек: AC3 2.0
Битрейт аудио: 192 Kb/s

MediaInfo:

General
Unique ID : 193580917128409253183510073900263500666 (0x91A254184F967400939A6865A8036B7A)
Complete name : F:\Multimedia\Video\2014\FIFA World Cup 2014. Матч 61. Полуфинал 1. Бразилия-Германия. HDTVRip. 720p.mkv
Format : Matroska
Format version : Version 4 / Version 2
File size : 3.48 GiB
Duration : 1h 57mn
Overall bit rate : 4 236 Kbps
Encoded date : UTC 2014-07-08 22:22:00
Writing application : mkvmerge v7.0.0 ('Where We Going') 64bit built on Jun 9 2014 15:16:27
Writing library : libebml v1.3.0 + libmatroska v1.4.1
Video
ID : 1
Format : AVC
Format/Info : Advanced Video Codec
Format profile : [url=mailto:[email protected]][email protected][/url]
Format settings, CABAC : Yes
Format settings, ReFrames : 4 frames
Format settings, GOP : M=2, N=15
Codec ID : V_MPEG4/ISO/AVC
Duration : 1h 57mn
Bit rate : 3 960 Kbps
Width : 1 280 pixels
Height : 720 pixels
Display aspect ratio : 16:9
Frame rate : 50.000 fps
Color space : YUV
Chroma subsampling : 4:2:0
Bit depth : 8 bits
Scan type : Progressive
Bits/(Pixel*Frame) : 0.086
Stream size : 3.26 GiB (93%)
DURATION : 01:57:41.740000000
NUMBER_OF_FRAMES : 353087
NUMBER_OF_BYTES : 3566979401
_STATISTICS_WRITING_APP : mkvmerge v7.0.0 ('Where We Going') 64bit built on Jun 9 2014 15:16:27
_STATISTICS_WRITING_DATE_UTC : 2014-07-08 22:22:00
_STATISTICS_TAGS : BPS DURATION NUMBER_OF_FRAMES NUMBER_OF_BYTES
Color primaries : BT.709-5, BT.1361, IEC 61966-2-4, SMPTE RP177
Transfer characteristics : BT.709-5, BT.1361
Matrix coefficients : BT.709-5, BT.1361, IEC 61966-2-4 709, SMPTE RP177
Audio
ID : 2
Format : AC-3
Format/Info : Audio Coding 3
Mode extension : CM (complete main)
Codec ID : A_AC3
Duration : 1h 57mn
Bit rate mode : Constant
Bit rate : 192 Kbps
Channel(s) : 2 channels
Channel positions : Front: L R
Sampling rate : 48.0 KHz
Bit depth : 16 bits
Compression mode : Lossy
Stream size : 162 MiB (5%)
Language : Russian
DURATION : 01:57:41.704000000
NUMBER_OF_FRAMES : 220675
NUMBER_OF_BYTES : 169478400
_STATISTICS_WRITING_APP : mkvmerge v7.0.0 ('Where We Going') 64bit built on Jun 9 2014 15:16:27
_STATISTICS_WRITING_DATE_UTC : 2014-07-08 22:22:00
_STATISTICS_TAGS : BPS DURATION NUMBER_OF_FRAMES NUMBER_OF_BYTES
-Составы команд:--Судейская бригада:--Скриншоты:-

Итог матча:

Вы уверены в том, что хотите его узнать, не посмотрев игру?

Абсолютно уверены?

Если Вы болели за Бразилию, то не смотрите, пожалуйста, результат...

Бразилия – Германия – 1:7
Голы: Мюллер, 11 (0:1); Клозе, 23 (0:2); Кроос, 25 (0:3); Кроос, 26 (0:4); Хедира, 29 (0:5); Шюррле, 69 (0:6); Шюррле, 79 (0:7); Оскар, 90 (1:7).


Создавать темы 09-Июл-2014 17:09 (спустя 1 час 47 минут)

мдя... давненько такого не видел
Яндекс.Метрика
Рейтинг@Mail.ru