(Disco,Euro Disco) Boney M - Discography 2000 - 1976-1988, FLAC (image+.cue), lossless

 

Создавать темы 30-Авг-2014 20:57

Boney M - Discography 2000 [6CD]- -Исполнитель: Boney M || Жанр: Disco, Euro disco
Дата выпуска дисков: 2000 || Дата выпуска альбомов: 1976-1988 || Производитель: Россия
Формат: FLAC (image+cue) || Битрейт: lossless || Продолжительность: 6 CD, 07:55:31
-

Треклист:

01 - Take The Heat Off Me + Nightflight To Venus

Продолжительность: 01:19:48
Треклист:
01. Daddy Cool [00:03:28]
02. Take the Heat off Me [00:04:46]
03. Sunny [00:04:02]
04. Baby do Yoy Wanna Bump [00:06:51]
05. No Woman No Cry [00:04:45]
06. Fever [00:03:52]
07. Got a Man on My Mind [00:03:12]
08. Lovin` or Leavin` [00:04:29]
09. Nightflight to Venus [00:04:46]
10. Rasputin [00:05:51]
11. Painter Man [00:03:10]
12. He Was a Steppenwolf [00:06:50]
13. King of the Road [00:02:35]
14. Rivers of Babylon [00:04:18]
15. Voodoonight [00:03:30]
16. Brown Girl in the Ring [00:04:01]
17. Never Change Lovers in the Middle of the Night [00:05:12]
18. Heart of Gold [00:04:04]

Отчёт EAC

Exact Audio Copy V0.99 prebeta 5 from 4. May 2009
Отчёт EAC об извлечении, выполненном 29. августа 2014, 8:22
Boney M / Take The Heat Off Me + Nightflight To Venus
Дисковод: PIONEER DVD-RW DVR-219L Adapter: 5 ID: 0
Режим чтения : Достоверность
Использование точного потока : Да
Отключение кэша аудио : Да
Использование указателей C2 : Нет
Коррекция смещения при чтении : 6
Способность читать области Lead-in и Lead-out : Нет
Заполнение пропущенных сэмплов тишиной : Да
Удаление блоков с тишиной в начале и конце : Нет
При вычислениях CRC использовались нулевые сэмплы : Да
Интерфейс : Встроенный Win32-интерфейс для Win NT/2000
Выходной формат : Пользовательский кодировщик
Выбранный битрейт : 1024 kBit/s
Качество : Высокий
Добавление ID3-тэга : Нет
Утилита сжатия : C:\Program Files (x86)\Exact Audio Copy\Flac\flac.exe
Дополнительные параметры : -8 -V -T "ARTIST=%a" -T "TITLE=%t" -T "ALBUM=%g" -T "DATE=%y" -T "TRACKNUMBER=%n" -T "GENRE=%m" -T "COMMENT=EAC FLAC -8" %s
TOC извлечённого CD
Трек | Старт | Длительность | Начальный сектор | Конечный сектор
---------------------------------------------------------------------
1 | 0:00.00 | 3:28.17 | 0 | 15616
2 | 3:28.17 | 4:46.47 | 15617 | 37113
3 | 8:14.64 | 4:02.00 | 37114 | 55263
4 | 12:16.64 | 6:51.13 | 55264 | 86101
5 | 19:08.02 | 4:45.06 | 86102 | 107482
6 | 23:53.08 | 3:52.40 | 107483 | 124922
7 | 27:45.48 | 3:12.62 | 124923 | 139384
8 | 30:58.35 | 4:29.48 | 139385 | 159607
9 | 35:28.08 | 4:46.19 | 159608 | 181076
10 | 40:14.27 | 5:51.16 | 181077 | 207417
11 | 46:05.43 | 3:10.22 | 207418 | 221689
12 | 49:15.65 | 6:50.53 | 221690 | 252492
13 | 56:06.43 | 2:35.12 | 252493 | 264129
14 | 58:41.55 | 4:18.37 | 264130 | 283516
15 | 63:00.17 | 3:30.20 | 283517 | 299286
16 | 66:30.37 | 4:01.68 | 299287 | 317429
17 | 70:32.30 | 5:12.22 | 317430 | 340851
18 | 75:44.52 | 4:04.01 | 340852 | 359152
Характеристики диапазона извлечения и сообщения об ошибках
Выбранный диапазон
Имя файла F:\СВОИ РЕЛИЗЫ\Boney M 1976-1988 ''CDMaximum Discography''\Boney M-1976-Take The Heat Off Me, 1978-Nightflight To Venus\Boney M - Take The Heat Off Me + Nightflight To Venus.wav
Пиковый уровень 99.0 %
Качество диапазона 99.9 %
CRC теста 8F0AC6A5
CRC копии 8F0AC6A5
Копирование... OK
Ошибок не произошло
AccurateRip: сводка
Трек 1 точность не определена (достоверность 4) [CCD70269], AccurateRip вернул [E08FEE47]
Трек 2 точность не определена (достоверность 4) [4D1F28D8], AccurateRip вернул [8937DE3C]
Трек 3 точность не определена (достоверность 4) [8CA6CA36], AccurateRip вернул [BF8A57BA]
Трек 4 точность не определена (достоверность 4) [8E2A1A1F], AccurateRip вернул [6C6D6663]
Трек 5 точность не определена (достоверность 4) [9E7C716C], AccurateRip вернул [0B5C78F6]
Трек 6 точность не определена (достоверность 4) [2159539A], AccurateRip вернул [5C249032]
Трек 7 точность не определена (достоверность 4) [FD183611], AccurateRip вернул [458CB681]
Трек 8 точность не определена (достоверность 4) [96CC8928], AccurateRip вернул [E80030C4]
Трек 9 точность не определена (достоверность 4) [0AF9B38C], AccurateRip вернул [18DF7DFB]
Трек 10 точность не определена (достоверность 4) [1D1D0ABC], AccurateRip вернул [CBFF32C5]
Трек 11 точность не определена (достоверность 4) [491D01AF], AccurateRip вернул [5B52A01D]
Трек 12 точность не определена (достоверность 4) [1AF0027E], AccurateRip вернул [ED9E39CA]
Трек 13 точность не определена (достоверность 4) [ACD7B201], AccurateRip вернул [8ECBFC1F]
Трек 14 точность не определена (достоверность 4) [E6FBA26C], AccurateRip вернул [C3D4D14E]
Трек 15 точность не определена (достоверность 4) [D2376F77], AccurateRip вернул [08FC4D33]
Трек 16 точность не определена (достоверность 4) [A7C5ED9F], AccurateRip вернул [98A30EED]
Трек 17 точность не определена (достоверность 4) [61D5262A], AccurateRip вернул [DD76E921]
Трек 18 точность не определена (достоверность 4) [7EF3B842], AccurateRip вернул [9D1E8257]
Ни один трек не прошёл проверки на точность
В вашей базе может быть иной вариант штамповки диска
Конец отчёта

02 - Love For Sale + Eye Dance

Продолжительность: 01:19:48
Треклист:
01. Ma Baker [00:04:34]
02. Love For Sale [00:04:43]
03. Belfast [00:03:28]
04. Have You Ever Seen The Rain [00:02:35]
05. Gloria, Can You Waddle [00:03:52]
06. Plantation Boy [00:04:18]
07. Motherless Child [00:04:54]
08. Silent Lover [00:04:11]
09. A Woman Can Change A Man [00:03:26]
10. Still I'm Sad [00:04:28]
11. Young, Free And Single [00:04:07]
12. Todos Buenos [00:04:26]
13. Give It Up [00:03:41]
14. Sample City [00:03:38]
15. Mycherie Amour [00:03:59]
16. Eye Dance [00:04:01]
17. Got Cha Loco [00:03:04]
18. Dreadlock Holiday [00:04:52]
19. Chica Da Silva [00:04:26]
20. Bang Bang Lulu [00:02:54]

Отчёт EAC

Exact Audio Copy V0.99 prebeta 5 from 4. May 2009
Отчёт EAC об извлечении, выполненном 29. августа 2014, 9:40
Boney M. / Love For Sale + Eye Dance
Дисковод: PIONEER DVD-RW DVR-219L Adapter: 5 ID: 0
Режим чтения : Достоверность
Использование точного потока : Да
Отключение кэша аудио : Да
Использование указателей C2 : Нет
Коррекция смещения при чтении : 6
Способность читать области Lead-in и Lead-out : Нет
Заполнение пропущенных сэмплов тишиной : Да
Удаление блоков с тишиной в начале и конце : Нет
При вычислениях CRC использовались нулевые сэмплы : Да
Интерфейс : Встроенный Win32-интерфейс для Win NT/2000
Выходной формат : Пользовательский кодировщик
Выбранный битрейт : 1024 kBit/s
Качество : Высокий
Добавление ID3-тэга : Нет
Утилита сжатия : C:\Program Files (x86)\Exact Audio Copy\Flac\flac.exe
Дополнительные параметры : -8 -V -T "ARTIST=%a" -T "TITLE=%t" -T "ALBUM=%g" -T "DATE=%y" -T "TRACKNUMBER=%n" -T "GENRE=%m" -T "COMMENT=EAC FLAC -8" %s
TOC извлечённого CD
Трек | Старт | Длительность | Начальный сектор | Конечный сектор
---------------------------------------------------------------------
1 | 0:00.00 | 4:34.15 | 0 | 20564
2 | 4:34.15 | 4:43.23 | 20565 | 41812
3 | 9:17.38 | 3:28.50 | 41813 | 57462
4 | 12:46.13 | 2:35.45 | 57463 | 69132
5 | 15:21.58 | 3:52.62 | 69133 | 86594
6 | 19:14.45 | 4:18.65 | 86595 | 106009
7 | 23:33.35 | 4:54.74 | 106010 | 128133
8 | 28:28.34 | 4:11.50 | 128134 | 147008
9 | 32:40.09 | 3:26.32 | 147009 | 162490
10 | 36:06.41 | 4:28.57 | 162491 | 182647
11 | 40:35.23 | 4:07.24 | 182648 | 201196
12 | 44:42.47 | 4:26.12 | 201197 | 221158
13 | 49:08.59 | 3:41.54 | 221159 | 237787
14 | 52:50.38 | 3:38.34 | 237788 | 254171
15 | 56:28.72 | 3:59.48 | 254172 | 272144
16 | 60:28.45 | 4:01.34 | 272145 | 290253
17 | 64:30.04 | 3:04.53 | 290254 | 304106
18 | 67:34.57 | 4:52.13 | 304107 | 326019
19 | 72:26.70 | 4:26.67 | 326020 | 346036
20 | 76:53.62 | 2:54.36 | 346037 | 359122
Характеристики диапазона извлечения и сообщения об ошибках
Выбранный диапазон
Имя файла F:\СВОИ РЕЛИЗЫ\Boney M 1976-1988 ''CDMaximum Discography''\Boney M-1977-Love For Sale, 1985-Eye Dance\Boney M. - Love For Sale + Eye Dance.wav
Пиковый уровень 99.0 %
Качество диапазона 100.0 %
CRC теста 9F073893
CRC копии 9F073893
Копирование... OK
Ошибок не произошло
AccurateRip: сводка
Трек 1 точное извлечение (доверие 1) [AB5220C1]
Трек 2 точность не определена (достоверность 1) [6A7392AA], AccurateRip вернул [108969C0]
Трек 3 точность не определена (достоверность 1) [CCD6F6F2], AccurateRip вернул [653F2013]
Трек 4 точность не определена (достоверность 1) [549EBF1D], AccurateRip вернул [7C1DB7D5]
Трек 5 точность не определена (достоверность 1) [85EC5871], AccurateRip вернул [73909B25]
Трек 6 точность не определена (достоверность 1) [24BB0B17], AccurateRip вернул [BE7BE0F2]
Трек 7 точное извлечение (доверие 1) [5D6A1EF0]
Трек 8 точность не определена (достоверность 1) [1827021E], AccurateRip вернул [0105074C]
Трек 9 точность не определена (достоверность 1) [9C05EF6A], AccurateRip вернул [36042CE9]
Трек 10 точность не определена (достоверность 1) [6047A2BA], AccurateRip вернул [971E67E7]
Трек 11 точность не определена (достоверность 1) [34575FFC], AccurateRip вернул [C5BB193E]
Трек 12 точность не определена (достоверность 1) [2669B5E1], AccurateRip вернул [D54188BA]
Трек 13 точность не определена (достоверность 1) [61E2719B], AccurateRip вернул [FFB135BD]
Трек 14 точность не определена (достоверность 1) [BAAE0449], AccurateRip вернул [3727A5AE]
Трек 15 точность не определена (достоверность 1) [D25A12A6], AccurateRip вернул [E7F69D0A]
Трек 16 точность не определена (достоверность 1) [D5149698], AccurateRip вернул [431F5D12]
Трек 17 точность не определена (достоверность 1) [F7EF117A], AccurateRip вернул [495ABBB7]
Трек 18 точное извлечение (доверие 1) [A57F985B]
Трек 19 точное извлечение (доверие 1) [FA29EB74]
Трек 20 точность не определена (достоверность 1) [4B051949], AccurateRip вернул [6D6B217D]
4 трек(и) скопированы точно
16 трек(и) не удалось проверить на точность
Некоторые треки не прошли проверку на точность
Конец отчёта

03 - Ocean Of Fantasy + Single Hits

Продолжительность: 01:17:19
Треклист:
01. Let It All Be Music [00:04:54]
02. Gotta Go Home [00:03:46]
03. Bye Bye Bluebird [00:04:50]
04. Bahama Mama [00:03:17]
05. Hold On I'm Coming [00:03:37]
06. Two Of Us [00:03:16]
07. Ribbons Of Blue [00:04:04]
08. Oceans Of Fantasy [00:05:07]
09. El Lute [00:05:57]
10. No More Chain Gang [00:05:24]
11. I'm Born Again [00:04:09]
12. No Time To Lose [00:02:56]
13. Calendar Song [00:02:41]
14. Hooray! Hooray! It's A Holi - Holiday [00:03:55]
15. I See A Boat On The River [00:04:33]
16. I Shall Sing [00:03:05]
17. Time To Remember [00:03:59]
18. Da La De La [00:04:05]
19. Lady Godive [00:03:31]

Отчёт EAC

Exact Audio Copy V0.99 prebeta 5 from 4. May 2009
Отчёт EAC об извлечении, выполненном 29. августа 2014, 10:50
Boney M. / Ocean Of Fantasy (1-13) & Single Hits. (14-19)
Дисковод: PIONEER DVD-RW DVR-219L Adapter: 5 ID: 0
Режим чтения : Достоверность
Использование точного потока : Да
Отключение кэша аудио : Да
Использование указателей C2 : Нет
Коррекция смещения при чтении : 6
Способность читать области Lead-in и Lead-out : Нет
Заполнение пропущенных сэмплов тишиной : Да
Удаление блоков с тишиной в начале и конце : Нет
При вычислениях CRC использовались нулевые сэмплы : Да
Интерфейс : Встроенный Win32-интерфейс для Win NT/2000
Выходной формат : Пользовательский кодировщик
Выбранный битрейт : 1024 kBit/s
Качество : Высокий
Добавление ID3-тэга : Нет
Утилита сжатия : C:\Program Files (x86)\Exact Audio Copy\Flac\flac.exe
Дополнительные параметры : -8 -V -T "ARTIST=%a" -T "TITLE=%t" -T "ALBUM=%g" -T "DATE=%y" -T "TRACKNUMBER=%n" -T "GENRE=%m" -T "COMMENT=EAC FLAC -8" %s
TOC извлечённого CD
Трек | Старт | Длительность | Начальный сектор | Конечный сектор
---------------------------------------------------------------------
1 | 0:00.00 | 4:55.51 | 0 | 22175
2 | 4:55.51 | 3:47.57 | 22176 | 39257
3 | 8:43.33 | 4:51.68 | 39258 | 61150
4 | 13:35.26 | 3:18.70 | 61151 | 76070
5 | 16:54.21 | 3:38.42 | 76071 | 92462
6 | 20:32.63 | 3:17.63 | 92463 | 107300
7 | 23:50.51 | 4:05.55 | 107301 | 125730
8 | 27:56.31 | 5:08.25 | 125731 | 148855
9 | 33:04.56 | 5:58.33 | 148856 | 175738
10 | 39:03.14 | 5:25.40 | 175739 | 200153
11 | 44:28.54 | 4:10.55 | 200154 | 218958
12 | 48:39.34 | 2:57.65 | 218959 | 232298
13 | 51:37.24 | 2:42.47 | 232299 | 244495
14 | 54:19.71 | 3:56.45 | 244496 | 262240
15 | 58:16.41 | 4:34.50 | 262241 | 282840
16 | 62:51.16 | 3:06.45 | 282841 | 296835
17 | 65:57.61 | 4:00.57 | 296836 | 314892
18 | 69:58.43 | 4:06.73 | 314893 | 333415
19 | 74:05.41 | 3:32.60 | 333416 | 349375
Характеристики диапазона извлечения и сообщения об ошибках
Выбранный диапазон
Имя файла F:\СВОИ РЕЛИЗЫ\Boney M 1976-1988 ''CDMaximum Discography''\Boney M-1979-Oceans Of Fantasy, Single Hits\Boney M. - Ocean Of Fantasy (1-13) & Single Hits. (14-19).wav
Пиковый уровень 99.0 %
Качество диапазона 100.0 %
CRC теста CE0D7370
CRC копии CE0D7370
Копирование... OK
Ошибок не произошло
AccurateRip: сводка
Трек 1 точное извлечение (доверие 2) [C0EFAFF6]
Трек 2 точное извлечение (доверие 2) [BCBD7E75]
Трек 3 точное извлечение (доверие 2) [942DBABB]
Трек 4 точное извлечение (доверие 2) [7CA4A135]
Трек 5 точное извлечение (доверие 2) [CF6730FE]
Трек 6 точное извлечение (доверие 2) [6C085798]
Трек 7 точное извлечение (доверие 2) [BE142641]
Трек 8 точное извлечение (доверие 2) [6661650D]
Трек 9 точное извлечение (доверие 2) [BB9466AF]
Трек 10 точное извлечение (доверие 2) [357454F9]
Трек 11 точное извлечение (доверие 2) [0688EC15]
Трек 12 точное извлечение (доверие 2) [8FDC0F1D]
Трек 13 точное извлечение (доверие 2) [2F3016C1]
Трек 14 точное извлечение (доверие 2) [6969A255]
Трек 15 точное извлечение (доверие 2) [63513EE6]
Трек 16 точное извлечение (доверие 2) [75CC862A]
Трек 17 точное извлечение (доверие 2) [D147DA20]
Трек 18 точное извлечение (доверие 2) [FC312BC7]
Трек 19 точное извлечение (доверие 2) [77FA52A0]
Все треки извлечены точно
Конец отчёта

04 - Boonoonoonoos + Remix I

Продолжительность: 01:19:44
Треклист:
01. Boonoonoonoos [00:04:40]
02. That's Boonoonoonoos+Train To Skaville+I Shall Sing [00:05:51]
03. Silly Confusion [00:07:18]
04. Ride To Agadir [00:05:11]
05. Jimmy [00:04:10]
06. African Moon [00:03:00]
07. We Kill The World [00:06:33]
08. Homeland Africa (Ship Ahoy) [00:04:20]
09. Malaika [00:03:27]
10. Consuela Biaz [00:04:37]
11. Breakaway [00:04:18]
12. Sad Movies [00:03:23]
13. Goodbye My Friend [00:05:25]
14. Sunny [00:03:42]
15. Daddy Cool [00:03:33]
16. Rasputin [00:05:27]
17. Ma Baker [00:04:42]

Отчёт EAC

Exact Audio Copy V0.99 prebeta 5 from 4. May 2009
Отчёт EAC об извлечении, выполненном 29. августа 2014, 13:39
Boney M. / Boonoonoonoos+Remix I
Дисковод: PIONEER DVD-RW DVR-219L Adapter: 5 ID: 0
Режим чтения : Достоверность
Использование точного потока : Да
Отключение кэша аудио : Да
Использование указателей C2 : Нет
Коррекция смещения при чтении : 6
Способность читать области Lead-in и Lead-out : Нет
Заполнение пропущенных сэмплов тишиной : Да
Удаление блоков с тишиной в начале и конце : Нет
При вычислениях CRC использовались нулевые сэмплы : Да
Интерфейс : Встроенный Win32-интерфейс для Win NT/2000
Выходной формат : Пользовательский кодировщик
Выбранный битрейт : 1024 kBit/s
Качество : Высокий
Добавление ID3-тэга : Нет
Утилита сжатия : C:\Program Files (x86)\Exact Audio Copy\Flac\flac.exe
Дополнительные параметры : -8 -V -T "ARTIST=%a" -T "TITLE=%t" -T "ALBUM=%g" -T "DATE=%y" -T "TRACKNUMBER=%n" -T "GENRE=%m" -T "COMMENT=EAC FLAC -8" %s
TOC извлечённого CD
Трек | Старт | Длительность | Начальный сектор | Конечный сектор
---------------------------------------------------------------------
1 | 0:00.00 | 4:40.49 | 0 | 21048
2 | 4:40.49 | 5:51.70 | 21049 | 47443
3 | 10:32.44 | 7:18.70 | 47444 | 80363
4 | 17:51.39 | 5:11.38 | 80364 | 103726
5 | 23:03.02 | 4:10.15 | 103727 | 122491
6 | 27:13.17 | 3:00.62 | 122492 | 136053
7 | 30:14.04 | 6:33.16 | 136054 | 165544
8 | 36:47.20 | 4:20.73 | 165545 | 185117
9 | 41:08.18 | 3:27.15 | 185118 | 200657
10 | 44:35.33 | 4:37.08 | 200658 | 221440
11 | 49:12.41 | 4:18.27 | 221441 | 240817
12 | 53:30.68 | 3:23.23 | 240818 | 256065
13 | 56:54.16 | 5:25.56 | 256066 | 280496
14 | 62:19.72 | 3:42.04 | 280497 | 297150
15 | 66:02.01 | 3:33.27 | 297151 | 313152
16 | 69:35.28 | 5:27.35 | 313153 | 337712
17 | 75:02.63 | 4:42.05 | 337713 | 358867
Характеристики диапазона извлечения и сообщения об ошибках
Выбранный диапазон
Имя файла F:\СВОИ РЕЛИЗЫ\Boney M 1976-1988 ''CDMaximum Discography''\Boney M-1981-Boonoonoonoos, 1988-Remix 1\Boney M. - Boonoonoonoos+Remix I.wav
Пиковый уровень 99.0 %
Качество диапазона 100.0 %
CRC теста 5CB08C63
CRC копии 5CB08C63
Копирование... OK
Ошибок не произошло
AccurateRip: сводка
Трек 1 точное извлечение (доверие 2) [935CB787]
Трек 2 точное извлечение (доверие 2) [5C273318]
Трек 3 точное извлечение (доверие 2) [C2547282]
Трек 4 точное извлечение (доверие 2) [6797F69C]
Трек 5 точное извлечение (доверие 2) [19672163]
Трек 6 точное извлечение (доверие 2) [35AEC269]
Трек 7 точное извлечение (доверие 2) [30BCCC3F]
Трек 8 точное извлечение (доверие 2) [FAAE8EB8]
Трек 9 точное извлечение (доверие 2) [3C2E3C86]
Трек 10 точное извлечение (доверие 2) [F20CFD58]
Трек 11 точное извлечение (доверие 2) [B2963044]
Трек 12 точное извлечение (доверие 2) [3404E440]
Трек 13 точное извлечение (доверие 2) [6FC5FCD0]
Трек 14 точное извлечение (доверие 1) [451011A3]
Трек 15 точное извлечение (доверие 1) [80797BD5]
Трек 16 точное извлечение (доверие 1) [C6510897]
Трек 17 точное извлечение (доверие 1) [E99AFBD0]
Все треки извлечены точно
Конец отчёта

05 - Kalimba De Luna + Happy Christmas

Продолжительность: 01:19:02
Треклист
01. Happy Song (Club Mix) [00:06:40]
02. Going Back West [00:03:11]
03. Barbarella Fortuneteller [00:02:54]
04. I Feel Good [00:03:04]
05. Consuela Biaz [00:02:41]
06. Jambo [00:02:49]
07. Jimmy [00:02:56]
08. The Calendar Song [00:02:22]
09. Kalimba De Luna (US Club Mix) [00:07:18]
10. Felicidad (Margherita) [00:02:52]
11. Living Like A Moviestar [00:02:56]
12. Gadda-Da-Vida [00:02:59]
13. Somewhere In The World [00:03:03]
14. African Moon [00:03:00]
15. Children Of Paradise [00:02:50]
16. Boonoonoonoos [00:02:12]
17. Feliz Navidad [00:03:08]
18. Jingle Bells [00:02:53]
19. Winter Fairy-Tale [00:02:58]
20. Mary's Boy Child/Oh My Lord [00:05:10]
21. Zion's Daughter [00:03:51]
22. When A Child Is Born [00:03:20]
23. I'll Be Home For Christmas [00:03:42]

Отчёт EAC

Exact Audio Copy V0.99 prebeta 5 from 4. May 2009
Отчёт EAC об извлечении, выполненном 29. августа 2014, 19:19
Boney M. / Kalimba De Luna + Happy Christmas
Дисковод: PIONEER DVD-RW DVR-219L Adapter: 5 ID: 0
Режим чтения : Достоверность
Использование точного потока : Да
Отключение кэша аудио : Да
Использование указателей C2 : Нет
Коррекция смещения при чтении : 6
Способность читать области Lead-in и Lead-out : Нет
Заполнение пропущенных сэмплов тишиной : Да
Удаление блоков с тишиной в начале и конце : Нет
При вычислениях CRC использовались нулевые сэмплы : Да
Интерфейс : Встроенный Win32-интерфейс для Win NT/2000
Выходной формат : Пользовательский кодировщик
Выбранный битрейт : 1024 kBit/s
Качество : Высокий
Добавление ID3-тэга : Нет
Утилита сжатия : C:\Program Files (x86)\Exact Audio Copy\Flac\flac.exe
Дополнительные параметры : -8 -V -T "ARTIST=%a" -T "TITLE=%t" -T "ALBUM=%g" -T "DATE=%y" -T "TRACKNUMBER=%n" -T "GENRE=%m" -T "COMMENT=EAC FLAC -8" %s
TOC извлечённого CD
Трек | Старт | Длительность | Начальный сектор | Конечный сектор
---------------------------------------------------------------------
1 | 0:00.00 | 6:41.39 | 0 | 30113
2 | 6:41.39 | 3:12.25 | 30114 | 44538
3 | 9:53.64 | 2:55.68 | 44539 | 57731
4 | 12:49.57 | 3:05.40 | 57732 | 71646
5 | 15:55.22 | 2:42.52 | 71647 | 83848
6 | 18:37.74 | 2:50.30 | 83849 | 96628
7 | 21:28.29 | 2:57.48 | 96629 | 109951
8 | 24:26.02 | 2:23.72 | 109952 | 120748
9 | 26:49.74 | 7:19.58 | 120749 | 153731
10 | 34:09.57 | 2:53.05 | 153732 | 166711
11 | 37:02.62 | 2:57.50 | 166712 | 180036
12 | 40:00.37 | 3:00.50 | 180037 | 193586
13 | 43:01.12 | 3:04.40 | 193587 | 207426
14 | 46:05.52 | 3:01.70 | 207427 | 221071
15 | 49:07.47 | 2:51.30 | 221072 | 233926
16 | 51:59.02 | 2:13.11 | 233927 | 243912
17 | 54:12.13 | 3:09.07 | 243913 | 258094
18 | 57:21.20 | 2:54.65 | 258095 | 271209
19 | 60:16.10 | 2:59.45 | 271210 | 284679
20 | 63:15.55 | 5:11.08 | 284680 | 308012
21 | 68:26.63 | 3:52.60 | 308013 | 325472
22 | 72:19.48 | 3:21.56 | 325473 | 340603
23 | 75:41.29 | 3:43.67 | 340604 | 357395
Характеристики диапазона извлечения и сообщения об ошибках
Выбранный диапазон
Имя файла F:\СВОИ РЕЛИЗЫ\Boney M 1976-1988 ''CDMaximum Discography''\Boney M-1984-Kalimba De Luna, 1981-Happy Christmas\Boney M. - Kalimba De Luna + Happy Christmas.wav
Пиковый уровень 99.6 %
Качество диапазона 100.0 %
CRC теста E6BBAB61
CRC копии E6BBAB61
Копирование... OK
Ошибок не произошло
AccurateRip: сводка
Трек 1 точность не определена (достоверность 4) [9E81752C], AccurateRip вернул [E90CF477]
Трек 2 точность не определена (достоверность 4) [E6545009], AccurateRip вернул [6B786C11]
Трек 3 точность не определена (достоверность 4) [FD6002B4], AccurateRip вернул [B5AE1CD4]
Трек 4 точность не определена (достоверность 4) [B0B6F1F7], AccurateRip вернул [B596DE97]
Трек 5 точность не определена (достоверность 4) [796F0717], AccurateRip вернул [FDD29B6F]
Трек 6 точность не определена (достоверность 4) [2A8BB59D], AccurateRip вернул [9249559D]
Трек 7 точность не определена (достоверность 4) [4CBED5E1], AccurateRip вернул [BB63B719]
Трек 8 точность не определена (достоверность 4) [F184B927], AccurateRip вернул [C1D6AD47]
Трек 9 точность не определена (достоверность 4) [6CDF9321], AccurateRip вернул [8F1A5219]
Трек 10 точность не определена (достоверность 4) [FBB1F9EE], AccurateRip вернул [5CCD785E]
Трек 11 точность не определена (достоверность 4) [FAA81701], AccurateRip вернул [60E64871]
Трек 12 точность не определена (достоверность 4) [A025C964], AccurateRip вернул [06E352E4]
Трек 13 точность не определена (достоверность 4) [BBBD1647], AccurateRip вернул [46B7BADF]
Трек 14 точность не определена (достоверность 4) [62147105], AccurateRip вернул [5891356D]
Трек 15 точность не определена (достоверность 4) [5BD622E6], AccurateRip вернул [1A8E6DFE]
Трек 16 точность не определена (достоверность 4) [04C04FCC], AccurateRip вернул [8D18827C]
Трек 17 точность не определена (достоверность 4) [A30C457C], AccurateRip вернул [7FA27EE4]
Трек 18 точность не определена (достоверность 4) [5CE1A569], AccurateRip вернул [B52FB7D1]
Трек 19 точность не определена (достоверность 4) [553CB833], AccurateRip вернул [7B87A433]
Трек 20 точность не определена (достоверность 4) [52B55959], AccurateRip вернул [C7D946A1]
Трек 21 точность не определена (достоверность 4) [1C61237B], AccurateRip вернул [43F726E3]
Трек 22 точность не определена (достоверность 4) [BAD5ED82], AccurateRip вернул [CB4E735A]
Трек 23 точность не определена (достоверность 2) [B7BAAE10], AccurateRip вернул [E0E488D7]
Ни один трек не прошёл проверки на точность
В вашей базе может быть иной вариант штамповки диска
Конец отчёта

06 - Ten Thousand Lightyears + Remix II

Продолжительность: 01:19:47
Треклист
01. Exodus (Noah's Ark 2001) [00:05:18]
02. Wild Planet [00:04:04]
03. Future World [00:03:49]
04. Where Did You Go [00:04:08]
05. 10,000 Lightyears [00:04:31]
06. I Feel Good [00:03:04]
07. Somewhere In The World [00:04:37]
08. Bel Ami [00:03:08]
09. Living Like A Moviestar [00:03:03]
10. Dizzy [00:03:27]
11. The Alibama [00:03:09]
12. Jimmy [00:03:00]
13. Barbarella Fortuneteller [00:02:54]
14. Take The Heat Off Me [00:03:53]
15. Hooray! Hooray! It's A Holi-Holiday [00:03:21]
16. Rivers Of Babylon [00:03:44]
17. No Woman No Cry [00:03:36]
18. Brown Girl In The Ring [00:04:01]
19. Gotta Go Home [00:04:40]
20. Painter Man [00:03:49]
21. Mary's Boy Child-Oh, My Lord [00:04:22]

Отчёт EAC

Exact Audio Copy V0.99 prebeta 5 from 4. May 2009
Отчёт EAC об извлечении, выполненном 29. августа 2014, 20:23
Boney M / Ten Thousand Lightyears + Remix II
Дисковод: PIONEER DVD-RW DVR-219L Adapter: 5 ID: 0
Режим чтения : Достоверность
Использование точного потока : Да
Отключение кэша аудио : Да
Использование указателей C2 : Нет
Коррекция смещения при чтении : 6
Способность читать области Lead-in и Lead-out : Нет
Заполнение пропущенных сэмплов тишиной : Да
Удаление блоков с тишиной в начале и конце : Нет
При вычислениях CRC использовались нулевые сэмплы : Да
Интерфейс : Встроенный Win32-интерфейс для Win NT/2000
Выходной формат : Пользовательский кодировщик
Выбранный битрейт : 1024 kBit/s
Качество : Высокий
Добавление ID3-тэга : Нет
Утилита сжатия : C:\Program Files (x86)\Exact Audio Copy\Flac\flac.exe
Дополнительные параметры : -8 -V -T "ARTIST=%a" -T "TITLE=%t" -T "ALBUM=%g" -T "DATE=%y" -T "TRACKNUMBER=%n" -T "GENRE=%m" -T "COMMENT=EAC FLAC -8" %s
TOC извлечённого CD
Трек | Старт | Длительность | Начальный сектор | Конечный сектор
---------------------------------------------------------------------
1 | 0:00.00 | 5:18.63 | 0 | 23912
2 | 5:18.63 | 4:04.64 | 23913 | 42276
3 | 9:23.52 | 3:49.56 | 42277 | 59507
4 | 13:13.33 | 4:08.01 | 59508 | 78108
5 | 17:21.34 | 4:31.14 | 78109 | 98447
6 | 21:52.48 | 3:04.16 | 98448 | 112263
7 | 24:56.64 | 4:37.03 | 112264 | 133041
8 | 29:33.67 | 3:08.68 | 133042 | 147209
9 | 32:42.60 | 3:03.00 | 147210 | 160934
10 | 35:45.60 | 3:27.44 | 160935 | 176503
11 | 39:13.29 | 3:09.66 | 176504 | 190744
12 | 42:23.20 | 3:00.74 | 190745 | 204318
13 | 45:24.19 | 2:54.45 | 204319 | 217413
14 | 48:18.64 | 3:53.28 | 217414 | 234916
15 | 52:12.17 | 3:21.52 | 234917 | 250043
16 | 55:33.69 | 3:44.25 | 250044 | 266868
17 | 59:18.19 | 3:36.13 | 266869 | 283081
18 | 62:54.32 | 4:01.02 | 283082 | 301158
19 | 66:55.34 | 4:40.43 | 301159 | 322201
20 | 71:36.02 | 3:49.07 | 322202 | 339383
21 | 75:25.09 | 4:22.49 | 339384 | 359082
Характеристики диапазона извлечения и сообщения об ошибках
Выбранный диапазон
Имя файла F:\СВОИ РЕЛИЗЫ\Boney M 1976-1988 ''CDMaximum Discography''\Boney M-1984-Ten Thousand Lightyears, Remix 2\Boney M - Ten Thousand Lightyears + Remix II.wav
Пиковый уровень 99.0 %
Качество диапазона 100.0 %
CRC теста 72F016BE
CRC копии 72F016BE
Копирование... OK
Ошибок не произошло
AccurateRip: сводка
Трек 1 точное извлечение (доверие 1) [0C323042]
Трек 2 точное извлечение (доверие 1) [7A9128D2]
Трек 3 точное извлечение (доверие 1) [449B0536]
Трек 4 точное извлечение (доверие 1) [57FEFB8C]
Трек 5 точное извлечение (доверие 1) [7848D3D6]
Трек 6 точное извлечение (доверие 1) [59EFC174]
Трек 7 точное извлечение (доверие 1) [22DFDB2D]
Трек 8 точное извлечение (доверие 1) [7590DB6D]
Трек 9 точное извлечение (доверие 1) [FE8452BA]
Трек 10 точное извлечение (доверие 1) [64AF20B1]
Трек 11 точное извлечение (доверие 1) [081EB65E]
Трек 12 точное извлечение (доверие 1) [15F76181]
Трек 13 точное извлечение (доверие 1) [C8636D23]
Трек 14 точность не определена (достоверность 1) [93870736], AccurateRip вернул [A4BE0CA4]
Трек 15 точность не определена (достоверность 1) [98EF1855], AccurateRip вернул [7765A80E]
Трек 16 точность не определена (достоверность 1) [D42D84B0], AccurateRip вернул [5545D01D]
Трек 17 точность не определена (достоверность 1) [A5B1C60B], AccurateRip вернул [D7422A2A]
Трек 18 точность не определена (достоверность 1) [DE4AB247], AccurateRip вернул [6C1E1B0F]
Трек 19 точность не определена (достоверность 1) [9F366243], AccurateRip вернул [E7BF2A44]
Трек 20 точность не определена (достоверность 1) [4E2FAE53], AccurateRip вернул [B585EB31]
Трек 21 точность не определена (достоверность 1) [57EBBC24], AccurateRip вернул [470E6D8A]
13 трек(и) скопированы точно
8 трек(и) не удалось проверить на точность
Некоторые треки не прошли проверку на точность
Конец отчёта
Яндекс.Метрика
Рейтинг@Mail.ru