БумеR (Бумер) - Не плачь (2014) [FLAC|Lossless]<Шансон>

 

Создавать темы 16-Дек-2014 20:20

-БумеR (Бумер) - Не плачь (2014)- Год: 2014
Жанр: Шансон
Продолжительность: 01:18:38
Лейбл: UMG
Каталог №: UMG CD 14-410
Тип рипа: image+.cue
Кодек: FLAC
Битрейт: Lossless-Трек лист:-01. Жизнь сначала
02. Не плачь
03. Судьба
04. Письма
05. Не люби её
06. Белые метели
07. Потерянный край
08. Взгляну с небес
09. Пацаны
10. Белый пух
11. Молитва
12. Москва-Магадан
13. Дари-дам
14. Два ангела
15. Весна
16. Ой, мама-мама
17. Воркутинский снег-

Отчёт EAC&#58;

Exact Audio Copy V1.0 beta 3 from 29. August 2011
Отчёт EAC об извлечении, выполненном 11. февраля 2014, 17:11
БумеR / Не плачь
Дисковод: ASUS    DRW-22B3S   Adapter: 0  ID: 1
Режим чтения                 : Достоверность
Использование точного потока : Да
Отключение кэша аудио        : Да
Использование указателей C2  : Нет
Коррекция смещения при чтении                     : 6
Способность читать области Lead-in и Lead-out     : Нет
Заполнение пропущенных сэмплов тишиной            : Да
Удаление блоков с тишиной в начале и конце        : Нет
При вычислениях CRC использовались нулевые сэмплы : Да
Интерфейс                                         : Встроенный Win32-интерфейс для Win NT/2000
Выходной формат : Внутренние WAV-операции
Формат сэмплов  : 44.100 Гц; 16 бит; стерео
TOC извлечённого CD
     Трек |   Старт  | Длительность | Начальный сектор | Конечный сектор
    ---------------------------------------------------------------------
       1  |  0:00.00 |    4:53.65   |           0      |      22039
       2  |  4:53.65 |    4:40.30   |       22040      |      43069
       3  |  9:34.20 |    4:42.09   |       43070      |      64228
       4  | 14:16.29 |    4:37.36   |       64229      |      85039
       5  | 18:53.65 |    5:24.71   |       85040      |     109410
       6  | 24:18.61 |    5:10.72   |      109411      |     132732
       7  | 29:29.58 |    5:35.31   |      132733      |     157888
       8  | 35:05.14 |    4:10.49   |      157889      |     176687
       9  | 39:15.63 |    4:01.68   |      176688      |     194830
      10  | 43:17.56 |    4:27.71   |      194831      |     214926
      11  | 47:45.52 |    5:49.53   |      214927      |     241154
      12  | 53:35.30 |    4:17.28   |      241155      |     260457
      13  | 57:52.58 |    3:08.60   |      260458      |     274617
      14  | 61:01.43 |    4:17.49   |      274618      |     293941
      15  | 65:19.17 |    4:47.64   |      293942      |     315530
      16  | 70:07.06 |    4:09.55   |      315531      |     334260
      17  | 74:16.61 |    4:21.18   |      334261      |     353853
Характеристики диапазона извлечения и сообщения об ошибках
Выбранный диапазон
     Имя файла C:\Шансон\БумеR - Дискография\2014 - БумеR - Не плачь\БумеR - Не плачь.wav
     Пиковый уровень 99.9 %
     Скорость извлечения 6.7 X
     Качество диапазона 99.9 %
     CRC теста E0FCD779
     CRC копии E0FCD779
     Копирование... OK
Ошибок не произошло
AccurateRip: сводка
Трек  1  отсутствует в базе данных
Трек  2  отсутствует в базе данных
Трек  3  отсутствует в базе данных
Трек  4  отсутствует в базе данных
Трек  5  отсутствует в базе данных
Трек  6  отсутствует в базе данных
Трек  7  отсутствует в базе данных
Трек  8  отсутствует в базе данных
Трек  9  отсутствует в базе данных
Трек 10  отсутствует в базе данных
Трек 11  отсутствует в базе данных
Трек 12  отсутствует в базе данных
Трек 13  отсутствует в базе данных
Трек 14  отсутствует в базе данных
Трек 15  отсутствует в базе данных
Трек 16  отсутствует в базе данных
Трек 17  отсутствует в базе данных
Ни одного трека нет в базе AccurateRip
Конец отчёта
==== Контрольная сумма отчёта FF910959FCA9E286BB68DCEDC48D3648ADA080A3F03A15B2408BFA2E9E6295E3 ====

Отчёт auCDtect Task manager&#58;

-----------------------
DON'T MODIFY THIS FILE
-----------------------
PERFORMER: auCDtect Task Manager, ver. 1.5.1RC6 build 1.5.1.7
Copyright (c) 2008-2010 y-soft. All rights reserved
http://y-soft.org
ANALYZER: auCDtect: CD records authenticity detector, version 0.8.2
Copyright (c) 2004 Oleg Berngardt. All rights reserved.
Copyright (c) 2004 Alexander Djourik. All rights reserved.
FILE: БумеR - Не плачь.flac
  Size: 594686375 Hash: 37C56A42EA2CD1F7372378FC183627FA Accuracy: -m0
  Conclusion: CDDA 100%
  Signature: 208C86020DC3884F5962CFCEDD4AB0C75F471AAE
-
Яндекс.Метрика
Рейтинг@Mail.ru