Reggy O. - Move My Body (CDM) (1994) [FLAC|Lossless]<Eurodance>

 

Создавать темы 17-Дек-2014 11:54

-Reggy O. - Move My Body (CDM) (1994)- Год: 1994
Жанр: Eurodance
Продолжительность: 00:19:53
Кодек: FLAC
Тип рипа: Image + Cue
Битрейт: Lossless
Наличие обложек: Да
Трек лист:
01. Move My Body (Radio Version)
02. Move My Body (Extended Version)
03. Move My Body (Dub Mix)
04. Move My Body (Trance Mix)

Отчёт ЕАС&#58;

Exact Audio Copy V0.99 prebeta 5 from 4. May 2009
Отчёт EAC об извлечении, выполненном 23. марта 2012, 22:06
Reggy O. / Move My Body
Дисковод: PHILIPS DVDR1660P1   Adapter: 1  ID: 1
Режим чтения                 : Достоверность
Использование точного потока : Да
Отключение кэша аудио        : Да
Использование указателей C2  : Нет
Коррекция смещения при чтении                     : 618
Способность читать области Lead-in и Lead-out     : Нет
Заполнение пропущенных сэмплов тишиной            : Да
Удаление блоков с тишиной в начале и конце        : Нет
При вычислениях CRC использовались нулевые сэмплы : Да
Интерфейс                                         : Встроенный Win32-интерфейс для Win NT/2000
Выходной формат : Внутренние WAV-операции
Формат сэмплов  : 44.100 Гц; 16 бит; стерео
TOC извлечённого CD
     Трек |   Старт  | Длительность | Начальный сектор | Конечный сектор
    ---------------------------------------------------------------------
       1  |  0:00.00 |    4:05.58   |           0      |      18432
       2  |  4:05.58 |    5:46.55   |       18433      |      44437
       3  |  9:52.38 |    4:25.12   |       44438      |      64324
       4  | 14:17.50 |    5:35.68   |       64325      |      89517
Характеристики диапазона извлечения и сообщения об ошибках
Выбранный диапазон
     Имя файла F:\Downloads\Reggy O. - Move My Body (CDM-1994-Flac)\Reggy O. - Move My Body.wav
     Пиковый уровень 100.0 %
     Качество диапазона 100.0 %
     CRC теста 400D5EEA
     CRC копии 400D5EEA
     Копирование... OK
Ошибок не произошло
AccurateRip: сводка
Трек  1  нет в базе данных
Трек  2  точное извлечение (доверие 1)  [4EB04819]
Трек  3  нет в базе данных
Трек  4  точное извлечение (доверие 1)  [C659DF56]
2 трек(и) скопированы точно
2 трек(и) не содержатся в базе AccurateRip
Некоторые треки не прошли проверку на точность
Конец отчёта

Отчёт auCDtect Task manager&#58;

-----------------------
DON'T MODIFY THIS FILE
-----------------------
PERFORMER: auCDtect Task Manager, ver. 1.5.1RC6 build 1.5.1.7
Copyright (c) 2008-2010 y-soft. All rights reserved
http://y-soft.org
ANALYZER: auCDtect: CD records authenticity detector, version 0.8.2
Copyright (c) 2004 Oleg Berngardt. All rights reserved.
Copyright (c) 2004 Alexander Djourik. All rights reserved.
FILE: Reggy O. - Move My Body.flac
  Size: 148261616 Hash: A8429F8A2B6F6CDA3860CF0936242F13 Accuracy: -m0
  Conclusion: CDDA 100%
  Signature: 0B7C5FDA238D68BB3D4976D9DDE93643BFBC950B
-
Яндекс.Метрика
Рейтинг@Mail.ru