Семейка монстров / The Boxtrolls (Грэхэм Эннэйбл, Энтони Стакки / Graham Annable, Anthony Stacchi) [2014 г., Мультфильм, Фэнтези, Комедия, Приключения, Семейный, BDRip, 1080p, OverUnder / Вертикальная стереопара] Dub (iTunes) + Original (Eng)

 

Создавать темы 25-Дек-2014 06:27

-Семейка монстров / The Boxtrolls-- Производство: США (Focus Features, Laika Entertainment)
Год выпуска: 2014 г.
Жанр: Мультфильм, Фэнтези, Комедия, Приключения, Семейный
Продолжительность: 1:36:10
Перевод: Профессиональный дублированный(iTunes)
Оригинальный аудиопоток: английский
Режиссер: Грэхэм Эннэйбл, Энтони Стакки / Graham Annable, Anthony Stacchi-В ролях: Бен Кингсли, Джаред Харрис, Ник Фрост, Ричард Айоади, Трэйси Морган, Ди Брэдли Бэйкер, Стивен Блум, Ника Футтерман-Описание: Ему не повезло родиться в роскошном замке. Вместе с семейкой забавных монстров юноша поселился прямо под мостовой. Изысканные костюмы ему заменила обычная коробка. Зато каждую ночь он мог разгуливать по темным улицам в поисках новых приключений. Но однажды он встретил очаровательную девчушку из высшего общества — и мир вокруг изменился навсегда.-
Качество видео: BDRip
Контейнер: MKV
Формат 3D: OverUnder / Вертикальная стереопара
Порядок ракурсов: левый ракурс первый
Стандарт разрешения: 1080p
Видео кодек: H.264
Аудио кодек: AC3
Видео: AVC / [email protected] / 23,976 fps / 1920х2160 / 20,3 Мбит/сек
Аудио: Русский / AC3 / 48 KHz / 5.1 ch / 384 Кбит/сек(iTunes)
Аудио #2: Английский / AC3 / 48 KHz / 5.1 ch / 640 Кбит/сек
Cубтитры: отсутствуют
ВНИМАНИЕ ! На встроенных ТВ-плеерах работать не будет!!!
ТВ Samsung в названии которого есть надпись Ultra HD , и LG Ultra HD 800 серии воспроизводят полные стереопары встроенными плеерами
Железные плееры на которых воспроизводятся полные стереопары:Popcorn C-200 , Dune HD Smart D1 , Dune HD DUO , Dune HD Smart H1 , Dune HD Smart B1 , Dune HD Max , Dune HD TV-303D , Dune HD Base 3D, Philips HMP7001

Media Info

Общее
Уникальный идентификатор : 214244049044627527309289098208779132562 (0xA12DE7277B1FE6D287A591AFD18F5E92)
Полное имя : E:\закачки\Boxtrolls.Rip by SeRoGa00.mkv
Формат : Matroska
Версия формата : Version 2
Размер файла : 14,6 Гбайт
Продолжительность : 1 ч. 36 м.
Общий поток : 21,8 Мбит/сек
Дата кодирования : UTC 2014-12-22 13:04:27
Программа кодирования : mkvmerge v3.4.0 ('Rapunzel') сборка от May 15 2010 09:38:20
Библиотека кодирования : libebml v0.8.0 + libmatroska v0.9.0
Видео
Идентификатор : 1
Формат : AVC
Формат/Информация : Advanced Video Codec
Профиль формата : [email protected]
Параметр CABAC формата : Да
Параметр ReFrames формата : 4 кадра
Идентификатор кодека : V_MPEG4/ISO/AVC
Продолжительность : 1 ч. 36 м.
Битрейт : 20,3 Мбит/сек
Ширина : 1920 пикселей
Высота : 2160 пикселей
Соотношение сторон : 0,889
Частота кадров : 23,976 кадра/сек
Цветовое пространство : YUV
Субдискретизация насыщенности : 4:2:0
Битовая глубина : 8 бит
Тип развёртки : Прогрессивная
Бит/(Пиксели*Кадры) : 0.204
Размер потока : 13,6 Гбайт (93%)
Заголовок : Rip by SeRoGa00
Библиотека кодирования : x264 core 142 r2479 dd79a61
Настройки программы : cabac=1 / ref=4 / deblock=1:-3:-3 / analyse=0x3:0x113 / me=umh / subme=9 / psy=1 / psy_rd=1.00:0.15 / mixed_ref=1 / me_range=24 / chroma_me=1 / trellis=2 / 8x8dct=1 / cqm=0 / deadzone=21,11 / fast_pskip=1 / chroma_qp_offset=-3 / threads=9 / lookahead_threads=1 / sliced_threads=0 / nr=0 / decimate=1 / interlaced=0 / bluray_compat=0 / constrained_intra=0 / bframes=8 / b_pyramid=2 / b_adapt=2 / b_bias=0 / direct=3 / weightb=1 / open_gop=0 / weightp=2 / keyint=250 / keyint_min=23 / scenecut=40 / intra_refresh=0 / rc_lookahead=60 / rc=crf / mbtree=1 / crf=18.0 / qcomp=0.60 / qpmin=10 / qpmax=69 / qpstep=4 / vbv_maxrate=30000 / vbv_bufsize=30000 / crf_max=0.0 / nal_hrd=none / filler=0 / ip_ratio=1.40 / aq=1:1.00
Язык : English
Аудио #1
Идентификатор : 2
Формат : AC-3
Формат/Информация : Audio Coding 3
Расширение режима : CM (complete main)
Идентификатор кодека : A_AC3
Продолжительность : 1 ч. 36 м.
Вид битрейта : Постоянный
Битрейт : 384 Кбит/сек
Каналы : 6 каналов
Расположение каналов : Front: L C R, Side: L R, LFE
Частота : 48,0 КГц
Битовая глубина : 16 бит
Метод сжатия : С потерями
Размер потока : 264 Мбайт (2%)
Язык : Russian
Аудио #2
Идентификатор : 3
Формат : AC-3
Формат/Информация : Audio Coding 3
Расширение режима : CM (complete main)
Идентификатор кодека : A_AC3
Продолжительность : 1 ч. 36 м.
Вид битрейта : Постоянный
Битрейт : 640 Кбит/сек
Каналы : 6 каналов
Расположение каналов : Front: L C R, Side: L R, LFE
Частота : 48,0 КГц
Битовая глубина : 16 бит
Метод сжатия : С потерями
Размер потока : 440 Мбайт (3%)
Язык : English

Скриншоты

Яндекс.Метрика
Рейтинг@Mail.ru