29-ая улица / 29th Street (Джордж Галло / George Gallo) [1991 г., Комедия, драма, DVDRip-AVC] AVO (Сергей Визгунов) + original (Eng)

 

Создавать темы 12-Янв-2015 06:17

29-ая улица / 29th Street
Год выпуска: 1991
Производство: США, Япония
Жанр: Комедия, драма
Продолжительность: 01:41:25
Перевод: Авторский (одноголосый, закадровый) Сергей Визгунов
Оригинальный аудиопоток: английский
Субтитры: отсутствуют
Режиссер: Джордж Галло / George Gallo
В ролях: Дэнни Айелло, Энтони ЛаПалья, Лэйни Кэзан, Фрэнк Пеше, Роберт Форстер, Рон Карабацос, Рик Айелло, Вик Манним, Пол Лэзар, Пит Антико
Описание: Фрэнк Пеш родился под счастливой звездой. Вся жизнь он не знал проигрыша ни в любви, ни в уличных разборках, ни за игорным столом. А поскольку Фрэнк был итальянцем и жил в Нью-Йорке, — жизнь постоянно предоставляла ему шанс проверить свою удачливость на практике.
, КиноПоиск
Качество видео: DVDRip-AVC
Контейнер: MKV
Видео кодек: H.264
Аудио кодек: AC3
Видео: 704x386, 23.976fps, 1460Kbps, 0.224 bt/px
Аудио : AC-3, 192 Kbps, 2 ch, 48.0 KHz Rus Визгунов
Аудио : AC-3, 192 Kbps, 2 ch, 48.0 KHz Eng Original

Media Info

G:\загрузки\29th_Street_[Pirat.ca].torrent.mkv
General
Unique ID : 183023935843668168475978431205679800170 (0x89B120BB4ED7793E8694F8B6E73F9F6A)
Complete name : G:\загрузки\29th_Street_[Pirat.ca].torrent.mkv
Format : Matroska
Format version : Version 1
File size : 1.33 GiB
Duration : 1h 41mn
Overall bit rate : 1 882 Kbps
Encoded date : UTC 2015-01-10 07:42:52
Writing application : mkvmerge v2.5.3 ('Boogie') built on Mar 7 2009 15:00:41
Writing library : libebml v0.7.7 + libmatroska v0.8.1
Video #1
ID : 1
Format : AVC
Format/Info : Advanced Video Codec
Format profile : [email protected]
Format settings, CABAC : Yes
Format settings, ReFrames : 8 frames
Codec ID : V_MPEG4/ISO/AVC
Duration : 1h 41mn
Bit rate : 1 460 Kbps
Width : 704 pixels
Height : 386 pixels
Display aspect ratio : 1.85:1
Frame rate mode : Constant
Frame rate : 23.976 fps
Color space : YUV
Chroma subsampling : 4:2:0
Bit depth : 8 bits
Scan type : Progressive
Bits/(Pixel*Frame) : 0.224
Stream size : 1.03 GiB (78%)
Writing library : x264 core 130 r2273 b3065e6
Encoding settings : cabac=1 / ref=8 / deblock=1:0:0 / analyse=0x3:0x133 / me=umh / subme=11 / psy=1 / psy_rd=1.00:0.00 / mixed_ref=1 / me_range=24 / chroma_me=1 / trellis=2 / 8x8dct=1 / cqm=0 / deadzone=21,11 / fast_pskip=1 / chroma_qp_offset=-2 / threads=6 / lookahead_threads=1 / sliced_threads=0 / nr=0 / decimate=1 / interlaced=0 / bluray_compat=0 / constrained_intra=0 / bframes=8 / b_pyramid=2 / b_adapt=2 / b_bias=0 / direct=1 / weightb=1 / open_gop=0 / weightp=2 / keyint=250 / keyint_min=23 / scenecut=40 / intra_refresh=0 / rc_lookahead=50 / rc=crf / mbtree=1 / crf=17.4 / qcomp=0.60 / qpmin=0 / qpmax=51 / qpstep=4 / ip_ratio=1.40 / aq=1:1.00
Language : English
Default : Yes
Forced : No
Audio #3
ID : 3
Format : AC-3
Format/Info : Audio Coding 3
Mode extension : CM (complete main)
Format settings, Endianness : Big
Codec ID : A_AC3
Duration : 1h 41mn
Bit rate mode : Constant
Bit rate : 192 Kbps
Channel(s) : 2 channels
Channel positions : Front: L R
Sampling rate : 48.0 KHz
Bit depth : 16 bits
Compression mode : Lossy
Stream size : 139 MiB (10%)
Language : English
Default : No
Forced : No
Audio #4
ID : 4
Format : AC-3
Format/Info : Audio Coding 3
Mode extension : CM (complete main)
Format settings, Endianness : Big
Codec ID : A_AC3
Duration : 1h 41mn
Bit rate mode : Constant
Bit rate : 192 Kbps
Channel(s) : 2 channels
Channel positions : Front: L R
Sampling rate : 48.0 KHz
Bit depth : 16 bits
Compression mode : Lossy
Stream size : 139 MiB (10%)
Title : AVO Визгунов
Language : Russian
Default : Yes
Forced : No

Скриншоты

Яндекс.Метрика
Рейтинг@Mail.ru