(NDH, Gothic Metal, Industrial Metal) Eisbrecher - Schock - 2015 [FLAC, image+.cue, Lossless]

 

Создавать темы 23-Янв-2015 04:31

-Eisbrecher
SCHOCK
--
Год издания: 2015
Страна: Germany
Жанр: NDH, Gothic Metal, Industrial Metal
Продолжительность: 00:52:29-Лейбл издания: Sony Music Entertainment Germany GmbH
Формат: FLAC
Битрейт аудио: Lossless
Тип рипа: image+.cue
Наличие сканов в содержимом раздачи: да-Трэклист:

01. Volle Kraft Voraus
02. 1000 Narben
03. Schock
04. Zwischen Uns
05. Rot Wie Die Liebe
06. Himmel, Arsch Und Zwirn
07. Schlachtbank
08. Dreizehn
09. Unschuldsengel
10. Nachtfieber
11. Noch Zu Retten
12. Fehler Machen Leute
13. Der Flieger
14. So Oder So

Log

Exact Audio Copy V1.0 beta 3 from 29. August 2011
EAC extraction logfile from 21. January 2015, 11:09
Eisbrecher / Schock
Used drive  : HP      DVD Writer 1170d   Adapter: 0  ID: 0
Read mode               : Secure
Utilize accurate stream : Yes
Defeat audio cache      : Yes
Make use of C2 pointers : No
Read offset correction                      : 6
Overread into Lead-In and Lead-Out          : No
Fill up missing offset samples with silence : Yes
Delete leading and trailing silent blocks   : No
Null samples used in CRC calculations       : Yes
Used interface                              : Native Win32 interface for Win NT & 2000
Used output format              : User Defined Encoder
Selected bitrate                : 768 kBit/s
Quality                         : High
Add ID3 tag                     : No
Command line compressor         : C:\Program Files (x86)\Exact Audio Copy\FLAC\FLAC.EXE
Additional command line options : -V -8 -T "Date=%year%" -T "Genre=%genre%" -T"COMMENT=Ripped by Ungern666" -8 -V %source%
TOC of the extracted CD
Track |   Start  |  Length  | Start sector | End sector
---------------------------------------------------------
1  |  0:00.00 |  3:16.19 |         0    |    14718
2  |  3:16.19 |  3:55.29 |     14719    |    32372
3  |  7:11.48 |  3:48.33 |     32373    |    49505
4  | 11:00.06 |  3:38.55 |     49506    |    65910
5  | 14:38.61 |  3:50.54 |     65911    |    83214
6  | 18:29.40 |  4:17.03 |     83215    |   102492
7  | 22:46.43 |  3:06.67 |    102493    |   116509
8  | 25:53.35 |  3:28.73 |    116510    |   132182
9  | 29:22.33 |  3:52.68 |    132183    |   149650
10  | 33:15.26 |  3:10.73 |    149651    |   163973
11  | 36:26.24 |  4:38.70 |    163974    |   184893
12  | 41:05.19 |  3:43.51 |    184894    |   201669
13  | 44:48.70 |  3:29.11 |    201670    |   217355
14  | 48:18.06 |  4:11.08 |    217356    |   236188
Range status and errors
Selected range
Filename C:\EAC\Ungern666\Eisbrecher - Schock.wav
Peak level 99.7 %
Extraction speed 7.1 X
Range quality 100.0 %
Test CRC 1F0E0373
Copy CRC 1F0E0373
Copy OK
No errors occurred
AccurateRip summary
Track  1  not present in database
Track  2  not present in database
Track  3  not present in database
Track  4  not present in database
Track  5  not present in database
Track  6  not present in database
Track  7  not present in database
Track  8  not present in database
Track  9  not present in database
Track 10  not present in database
Track 11  not present in database
Track 12  not present in database
Track 13  not present in database
Track 14  not present in database
None of the tracks are present in the AccurateRip database
End of status report
==== Log checksum B90514FCD48E0EAB945F36E1FC1C129210FA759CFAEB312F9AC1B2C5E3BF1C77 ====

Cue

REM DATE 2015
REM DISCID D00C4D0E
REM COMMENT "ExactAudioCopy v1.0b3"
PERFORMER "Eisbrecher"
TITLE "Schock"
FILE "Eisbrecher - Schock.flac" WAVE
TRACK 01 AUDIO
TITLE "Volle Kraft Voraus"
PERFORMER "Eisbrecher"
INDEX 01 00:00:00
TRACK 02 AUDIO
TITLE "1000 Narben"
PERFORMER "Eisbrecher"
INDEX 01 03:16:19
TRACK 03 AUDIO
TITLE "Schock"
PERFORMER "Eisbrecher"
INDEX 01 07:11:48
TRACK 04 AUDIO
TITLE "Zwischen Uns"
PERFORMER "Eisbrecher"
INDEX 01 11:00:06
TRACK 05 AUDIO
TITLE "Rot Wie Die Liebe"
PERFORMER "Eisbrecher"
INDEX 01 14:38:61
TRACK 06 AUDIO
TITLE "Himmel, Arsch Und Zwirn"
PERFORMER "Eisbrecher"
INDEX 01 18:29:40
TRACK 07 AUDIO
TITLE "Schlachtbank"
PERFORMER "Eisbrecher"
INDEX 01 22:46:43
TRACK 08 AUDIO
TITLE "Dreizehn"
PERFORMER "Eisbrecher"
INDEX 01 25:53:35
TRACK 09 AUDIO
TITLE "Unschuldsengel"
PERFORMER "Eisbrecher"
INDEX 01 29:22:33
TRACK 10 AUDIO
TITLE "Nachtfieber"
PERFORMER "Eisbrecher"
INDEX 01 33:15:26
TRACK 11 AUDIO
TITLE "Noch Zu retten"
PERFORMER "Eisbrecher"
INDEX 01 36:26:24
TRACK 12 AUDIO
TITLE "Fehler Machen Leute"
PERFORMER "Eisbrecher"
INDEX 01 41:05:19
TRACK 13 AUDIO
TITLE "Der Flieger"
PERFORMER "Eisbrecher"
INDEX 01 44:48:70
TRACK 14 AUDIO
TITLE "So Oder So"
PERFORMER "Eisbrecher"
INDEX 01 48:18:06
-
Яндекс.Метрика
Рейтинг@Mail.ru