Винтаж - Деревья (RE:Music) [2011, Pop, HDTVRip 1080p]

 

Создавать темы 17-Фев-2015 20:24

Винтаж - Деревья
Жанр: Pop
Продолжительность: 00:04:49
Год выпуска: 2011
Описание:
Режиссер - Сережа Ткаченко
© 2011 Velvet Music
Качество: HDTVRip 1080p
Контейнер: MP4
Видео кодек: H.264
Аудио кодек: AAC
Видео: AVC, 1920*1080, 18.3 Mbps, 25.000 fps
Аудио: AAC, 320 Kbps, 48.0 KHz, 2 channels

Отчёт MediaInfo / BDInfo

eneralComplete name                            : E:\2011_Vintag_-_Dereviya.mp4Format                                   : MPEG-4Format profile                           : Base Media / Version 2Codec ID                                 : mp42File size                                : 642 MiBDuration                                 : 4mn 49sOverall bit rate mode                    : VariableOverall bit rate                         : 18.6 MbpsEncoded date                             : UTC 2014-04-09 16:08:45Tagged date                              : UTC 2014-04-09 16:09:41©TIM                                     : 00:00:00:00©TSC                                     : 25©TSZ                                     : 1
VideoID                                       : 1Format                                   : AVCFormat/Info                              : Advanced Video CodecFormat profile                           : [email protected] settings, CABAC                   : YesFormat settings, ReFrames                : 3 framesCodec ID                                 : avc1Codec ID/Info                            : Advanced Video CodingDuration                                 : 4mn 49sBit rate                                 : 18.3 MbpsWidth                                    : 1 920 pixelsHeight                                   : 1 080 pixelsDisplay aspect ratio                     : 16:9Frame rate mode                          : ConstantFrame rate                               : 25.000 fpsStandard                                 : PALColor space                              : YUVChroma subsampling                       : 4:2:0Bit depth                                : 8 bitsScan type                                : ProgressiveBits/(Pixel*Frame)                       : 0.353Stream size                              : 631 MiB (98%)Language                                 : EnglishEncoded date                             : UTC 2014-04-09 16:08:45Tagged date                              : UTC 2014-04-09 16:08:45
AudioID                                       : 2Format                                   : AACFormat/Info                              : Advanced Audio CodecFormat profile                           : LCCodec ID                                 : 40Duration                                 : 4mn 49sSource duration                          : 4mn 49sBit rate mode                            : VariableBit rate                                 : 317 KbpsMaximum bit rate                         : 401 KbpsChannel(s)                               : 2 channelsChannel positions                        : Front: L RSampling rate                            : 48.0 KHzCompression mode                         : LossyStream size                              : 10.9 MiB (2%)Source stream size                       : 10.9 MiB (2%)Language                                 : EnglishEncoded date                             : UTC 2014-04-09 16:08:46Tagged date                              : UTC 2014-04-09 16:08:46mdhd_Duration                            : 289280

Скриншоты:

Яндекс.Метрика
Рейтинг@Mail.ru