Новые приключения Стича / Stitch! The Movie (2003)[мультфильм, комедия, семейный WEB-DL-1080p] от Stranik 2.0 | D

 

Создавать темы 28-Ноя-2013 08:47

Информация о фильме
Название : Новые приключения Стича
Оригинальное название : Stitch! The Movie
Год выхода : 2003
Жанр : мультфильм, комедия, семейный
Режиссеры : Тони Крэйг, Роберт Ганнавей
Роли озвучивали : Дэйви Чейз, Крис Сандерс, Тиа Каррере, Дэвид Огден Стайерз, Кевин МакДональд, Винг Реймз, Ди Брэдли Бейкер, Кевин Майкл Ричардсон, Джефф Беннетт, Кори Бертон

Описание : Мы знаем, что Стич был «Экспериментальным Образцом 626-м» — но интересовала ли Вас когда-нибудь судьба первых 625? На этот раз речь пойдет о новых шутках и проказах веселого и непоседливого инопланетянина, который свалился на планету Земля и прямиком угодил в семью Лило. Теперь Стич, Пликли и Джамба — члены одной семьи.
Но Лило и Стич еще не знают, что Джамба тайно отправил на Землю всех 625 инопланетных предшественников… и злобный Капитан Ганту намеревается отправить их всех обратно. Все зависит от Лило и Стича, смогут ли они спасти свою инопланетную родню?
Страна : США
Производство : Walt Disney Television Animation
Продолжительность : 01:00:23
Перевод 1 : Профессиональный (Дублированный)
Перевод 2 : Профессиональный (Многоголосый, закадровый)
Русские субтитры : есть
Файл
Формат видео : MKV
Качество : WEB-DL-1080p (Stitch! The Movie (2003) 1080p WEB-DL DD5.1 H.264-TrollHD)
Видео : AVC, 1920x1080 (16:9), 23.976 fps, ~4775 kbps avg, 0.096 bit/pixel
Аудио 1 : Русский, AC3, 48.0 kHz, 6 ch, ~384 kbps (Дублированный)
Аудио 2 : Русский, AC3, 48.0 kHz, 6 ch, ~448 kbps (Многоголосый, закадровый)
Аудио 3 : Английский, AC3, 48.0 kHz, 6 ch, ~384 kbps (Оригинал)
Субтитры : Русские, Английские (SubRip (srt))

Скриншоты

MediaInfo

General
Unique ID : 233276174635077489937212242647245008915 (0xAF7F5B64A03E748B97D10C327CDE3013)
Complete name : E:/Torrent_2/Stitch!.The.Movie.2003.1080p.WEB-DL.DUB.MVO.Eng...Stranik.2.0.mkv
Format : Matroska
File size : 2.58 GiB
Duration : 1h 0mn
Overall bit rate : 6 114 Kbps
Encoded date : UTC 2013-11-27 12:51:42
Writing application : mkvmerge v5.5.0 ('Healer') built on Apr 6 2012 21:43:24
Writing library : libebml v1.2.3 + libmatroska v1.3.0
Video #1
ID : 1
Format : AVC
Format/Info : Advanced Video Codec
Format profile : [email protected]
Format settings, CABAC : Yes
Format settings, ReFrames : 4 frames
Codec ID : V_MPEG4/ISO/AVC
Duration : 1h 0mn
Bit rate mode : Variable
Bit rate : 4 776 Kbps
Width : 1 920 pixels
Height : 1 080 pixels
Display aspect ratio : 16:9
Frame rate : 23.976 fps
Color space : YUV
Chroma subsampling : 4:2:0
Bit depth : 8 bits
Scan type : Progressive
Bits/(Pixel*Frame) : 0.096
Stream size : 2.02 GiB (78%)
Language : English
Color primaries : BT.709-5, BT.1361, IEC 61966-2-4, SMPTE RP177
Transfer characteristics : BT.709-5, BT.1361
Matrix coefficients : BT.709-5, BT.1361, IEC 61966-2-4 709, SMPTE RP177
Audio #2
ID : 2
Format : AC-3
Format/Info : Audio Coding 3
Mode extension : CM (complete main)
Codec ID : A_AC3
Duration : 1h 0mn
Bit rate mode : Constant
Bit rate : 384 Kbps
Channel(s) : 6 channels
Channel positions : Front: L C R, Side: L R, LFE
Sampling rate : 48.0 KHz
Bit depth : 16 bits
Compression mode : Lossy
Stream size : 166 MiB (6%)
Title : Russian_DUB
Language : Russian
Audio #3
ID : 3
Format : AC-3
Format/Info : Audio Coding 3
Mode extension : CM (complete main)
Codec ID : A_AC3
Duration : 1h 0mn
Bit rate mode : Constant
Bit rate : 448 Kbps
Channel(s) : 6 channels
Channel positions : Front: L C R, Side: L R, LFE
Sampling rate : 48.0 KHz
Bit depth : 16 bits
Compression mode : Lossy
Stream size : 194 MiB (7%)
Title : Russian_MVO
Language : Russian
Audio #4
ID : 4
Format : AC-3
Format/Info : Audio Coding 3
Mode extension : CM (complete main)
Codec ID : A_AC3
Duration : 1h 0mn
Bit rate mode : Constant
Bit rate : 384 Kbps
Channel(s) : 6 channels
Channel positions : Front: L C R, Side: L R, LFE
Sampling rate : 48.0 KHz
Bit depth : 16 bits
Compression mode : Lossy
Stream size : 166 MiB (6%)
Title : English
Language : English
Text #5
ID : 5
Format : UTF-8
Codec ID : S_TEXT/UTF8
Codec ID/Info : UTF-8 Plain Text
Title : Rus
Language : Russian
Text #6
ID : 6
Format : UTF-8
Codec ID : S_TEXT/UTF8
Codec ID/Info : UTF-8 Plain Text
Title : Eng
Language : English
Яндекс.Метрика
Рейтинг@Mail.ru