7 гномов / The 7D [01x01-23 из 24] (2014,Мультсериал, детский, семейный, приключения) WEB-DLRip | D(Обновляемая)

 

Создавать темы 24-Авг-2015 15:04

-7 гномов / The 7D [01x01-23 из 24] (2014) WEB-DLRip -Информация о фильме:
● Название: 7 гномов
● Оригинальное название: The 7D
● Год выхода: 2014
● Страна: США
● Студия: Walt Disney Television Animation
● Жанр: Мультсериал, детский, семейный, приключения
● Режиссер: Альфред Гимено, Джефф Гордон, Чарльз Виссер
● В ролях: Морис ЛаМарш, Ди Брэдли Бейкер, Билл Фармер, Скотт Менвилль, Кевин Майкл Ричардсон, Стефен Стэнтон, Билли Уэст, Ли-Эллин Бейкер, Пол Ругг, Джесс Харнелл
● Продолжительность: 23 x 00:24:01
● Перевод: Дублированный

Описание фильма:
Любимые герои возвращаются! В новом современном мультсериале "7 гномов" зрителей ждет встреча со знаменитой компанией друзей. Умник, Простачок, Скромник, Ворчун, Чихун, Соня и Весельчак знакомы миллионам людей во всем мире по непревзойденному шедевру анимации Disney "Белоснежка и Семь гномов"! В центре сюжета нового анимационного проекта - приключения друзей в волшебном королевстве, спокойствие которого постоянно хотят нарушить местные злодеи. Гномики никогда не падают духом, ведь главное средство против всех бед - сила настоящей дружбы!
Информация о файле:
● Кодек: XviD
● Формат: AVI
● Качество: WEB-DLRip
● Видео: 704x400 (1.76:1), 23.976 fps, XviD build 50 ~1409 kbps avg, 0.21 bit/pixel
● Аудио#1 Rus: 48 kHz, AC3 Dolby Digital, 2/0 (L,R) ch, ~192 kbps
● Аудио#2 Eng: 48 kHz, AC3 Dolby Digital, 2/0 (L,R) ch, ~192 kbps

Скриншоты

Список серий

01. The Long, Long Winter - The Itsy Bitsy Spider Fighters / Долгая, долгая зима - У страха глаза велики
02. Sneezin' Season - The Delightful Diamond Mystery / Чихательный сезон - Тайна бриллианта Великолепия
03. Mirror, Mirror - The Big Bash / Свет мой, зеркальце - Большой Скром
04. Surprise - Welcome to the Neighborhood / Сюрприз - Добро пожаловать к нам
05. Sir Yipsalot and the Goose - Starchy Takes a Break / Сэр Тявколот и Гусь - Отпуск лорда Чопорсона
06. The Littlest Giants - Gnome Alone / Крошечные гиганты - Гном один дома
07. Sleepytime - Goldilocks and the 7D / Пора спать - Златовласка и семь гномов
08. For the Love of Cheese - Let's Get Organ-ized / Ради сыра на земле - Давайте орган-изованей!
09. Grampa Grumpy and the Ogre - The Fairest in the Land / Дедушка Ворчун и Огр - Кто на свете всех милее
10. The 8th D - New Shoe / Восьмой гном - Новый ботинок
11. Bathtub Bashful - Knick Knack Paddy Whack / Певец в душе - Безделушка-побрякушка
12. Grim the Dragon - Free Teensy / Дракон Грим - Свободу Крошке
13. The Jollywood Jam - Hildy the Good / Приколивуд-ревю - Добрая Хильди
14. Buckets - Frankengloom / Бадди - Франкенхмур
15. Uncle Humidor - Grim the Genius / Дядя Хьюмидор - Грим-гений!
16. The Enchanted Shoes - Hildyrella / Волшебные туфли - Золушка Хильди
17. Big Bad Sneezy - Cat on a Hot Grim Roof / Большой и страшный Чихун - Кошка на раскалённой крыше
18. Gingersnaps and Grumpy Snaps - Jollybells / Печенюшка и Ворчунишка - Колокольчики звенят
19. The Very Important Thingy - Leaf It To Sneezy / Очень важная штуковина - Чихун и листья
20. 7 Frogs - Sir Yipsalot and the Mutt / Семь лягушек - Сэр Тявколот и дворняшка
21. The Queen's Quest - Finders Keepers / Королевский поход - Находильщик
22. Abraca-Dopey - Bing Bong Beans / Простачок-фокусник - Бобы Динь-Дон
23. Doing the 7D Dance - Big Rock Candy Flim-Flam / Танец семи гномов - Большой леденцовый кристалл

MI

Общее
Полное имя: D:MR_eng_seriesThe 7D. 2014. avi. WEB-DLRip (704x400)s01e01. The Long, Long Winter .-. The Itsy Bitsy Spider Fighters.avi
Формат: AVI
Формат/Информация: Audio Video Interleave
Размер файла: 314 Мбайт
Продолжительность: 24 м.
Общий поток: 1808 Кбит/сек
Название фильма: s01e01. Долгая, долгая зима / У страха глаза велики
Программа кодирования: VirtualDubMod 1.5.10.3 (build 2550/release)
Правообладатель: SHAgroup-SHAmonstra
Видео
Идентификатор: 0
Формат: MPEG-4 Visual
Профиль формата: Advanced [email protected]
Параметр BVOP формата: 1
Параметр QPel формата: Нет
Параметр GMC формата: Без точки перехода
Параметр матрицы формата: Default (H.263)
Идентификатор кодека: XVID
Идентификатор кодека/Подсказка: XviD
Продолжительность: 24 м.
Битрейт: 1410 Кбит/сек
Ширина: 704 пикселя
Высота: 400 пикселей
Соотношение сторон: 16:9
Частота кадров: 23,976 кадра/сек
Цветовое пространство: YUV
Субдискретизация насыщенности: 4:2:0
Битовая глубина: 8 бит
Тип развёртки: Прогрессивная
Метод сжатия: С потерями
Бит/(Пиксели*Кадры): 0.209
Размер потока: 245 Мбайт (78%)
Библиотека кодирования: XviD 1.2.1 (UTC 2008-12-04)
Аудио #1
Идентификатор: 1
Формат: AC-3
Формат/Информация: Audio Coding 3
Расширение режима: CM (complete main)
Параметр Endianness формата: Big
Идентификатор кодека: 2000
Продолжительность: 24 м.
Вид битрейта: Постоянный
Битрейт: 192 Кбит/сек
Каналы: 2 канала
Расположение каналов: Front: L R
Частота: 48,0 КГц
Битовая глубина: 16 бит
Метод сжатия: С потерями
Размер потока: 33,4 Мбайт (11%)
Выравнивание: Разделение по промежуткам
Продолжительность промежутка: 42 мс. (1,00 видеокадр)
Время предзагрузки промежутка: 500 мс.
Аудио #2
Идентификатор: 2
Формат: AC-3
Формат/Информация: Audio Coding 3
Расширение режима: CM (complete main)
Параметр Endianness формата: Big
Идентификатор кодека: 2000
Продолжительность: 24 м.
Вид битрейта: Постоянный
Битрейт: 192 Кбит/сек
Каналы: 2 канала
Расположение каналов: Front: L R
Частота: 48,0 КГц
Битовая глубина: 16 бит
Метод сжатия: С потерями
Размер потока: 33,4 Мбайт (11%)
Выравнивание: Разделение по промежуткам
Продолжительность промежутка: 42 мс. (1,00 видеокадр)
Время предзагрузки промежутка: 500 мс.

Раздача ведется путем добавления новых серий

Когда раздача ведётся путём добавления новых серий, при каждом добавлении создётся новый торрент. Чтобы начать докачку новой серии, пользователям необходимо сделать следующее:
(1) остановить скачивание,
(2) удалить старый торрент у себя из клиента (старые серии удалять не надо),
(3) скачать новый торрент и запустить его у себя в клиенте вместо старого, при этом указать клиенту путь в старую папку, куда и должно происходить скачивание новых серий.
Ваш клиент при этом должен произвести хеширование (проверку) старой папки (если не производит сам - помогите ему сделать это), и будет докачивать только те серии, которых у вас ещё нет. Старые серии при этом не удаляются, а продолжают раздаваться!
Eсли вы уже удалили старые серии, то предотвратить повторную закачку старых серий можно, отжав галочку в соответсвующих местах при запуске нового торрента. По возможности, желательно не удалять старые серии как можно дольше, чтобы релизёр не столько продолжал раздавать старые серии, а смог сконцентрироваться на новых.
Яндекс.Метрика
Рейтинг@Mail.ru