(Hard Rock, Classic Rock) Deep Purple - From The Setting Sun... (In Wacken) (2CD) - 2015 [WAVPack, image+.cue, lossless]

 

Создавать темы 16-Сен-2015 11:59

-Deep Purple / From The Setting Sun... (In Wacken) (2CD)-- Год издания: 2015
Страна: UK
Жанр: Hard Rock, Classic Rock
Продолжительность: 01:31:36-Лейбл издания: e.a.r. Music
Тип альбома: Live
Страна-выпуска диска: Germany
Номер по каталогу: 0210536EMU
Формат: WAVPack
Битрейт аудио: lossless
Тип рипа: image+.cue
Наличие сканов в содержимом раздачи: да

Трэклист

CD 1 | 00:45:37

01. Highway Star (06:49)
02. Into The Fire (03:27)
03. Hard LovinMan (06:35)
04. Vincent Price (04:26)
05. Strange Kind Of Woman (05:49)
06. Contact Lost (02:58)
07. The Well-Dressed Guitar (02:39)
08. Hell To Pay (05:03)
09. Lazy (07:56)

CD 2 | 00:45:59

01. Above And Beyond (05:11)
02. No One Came (05:17)
03. Don Aireys Solo (03:01)
04. Perfect Strangers (06:04)
05. Space Truckin (04:55)
06. Smoke On The Water (featuring Uli Jon Roth) (07:59)
07. Green Onions / Hush (07:21)
08. Black Night (06:14)

Лог создания рипа

CD 1

Exact Audio Copy V1.1 from 23. June 2015
EAC extraction logfile from 13. September 2015, 17:07
Deep Purple / From The Setting Sun... in Wacken (CD1)
Used drive  : _NEC    DVD_RW ND-2500A   Adapter: 4  ID: 0
Read mode               : Secure
Utilize accurate stream : Yes
Defeat audio cache      : Yes
Make use of C2 pointers : No
Read offset correction                      : 48
Overread into Lead-In and Lead-Out          : No
Fill up missing offset samples with silence : Yes
Delete leading and trailing silent blocks   : No
Null samples used in CRC calculations       : Yes
Used interface                              : Installed external ASPI interface
Used output format              : User Defined Encoder
Selected bitrate                : 128 kBit/s
Quality                         : High
Add ID3 tag                     : No
Command line compressor         : C:\Program Files (x86)\Exact Audio Copy\wavpack-4.60.1\wavpack.exe
Additional command line options : -hm -w "Year=%year%" -w "Genre=%genre%" %source% %dest%
TOC of the extracted CD
     Track |   Start  |  Length  | Start sector | End sector
    ---------------------------------------------------------
        1  |  0:00.00 |  6:48.55 |         0    |    30654
        2  |  6:48.55 |  3:26.05 |     30655    |    46109
        3  | 10:14.60 |  6:34.61 |     46110    |    75720
        4  | 16:49.46 |  4:25.18 |     75721    |    95613
        5  | 21:14.64 |  5:48.71 |     95614    |   121784
        6  | 27:03.60 |  2:57.02 |    121785    |   135061
        7  | 30:00.62 |  2:38.06 |    135062    |   146917
        8  | 32:38.68 |  5:02.38 |    146918    |   169605
        9  | 37:41.31 |  7:55.22 |    169606    |   205252
Range status and errors
Selected range
     Filename G:\Rips by Alder\Deep Purple - From The Setting Sun... in Wacken (CD1).wav
     Peak level 97.7 %
     Extraction speed 1.9 X
     Range quality 100.0 %
     Test CRC 3370E4A7
     Copy CRC 3370E4A7
     Copy OK
No errors occurred
AccurateRip summary
Track  1  not present in database
Track  2  not present in database
Track  3  not present in database
Track  4  not present in database
Track  5  not present in database
Track  6  not present in database
Track  7  not present in database
Track  8  not present in database
Track  9  not present in database
None of the tracks are present in the AccurateRip database
End of status report
---- CUETools DB Plugin V2.1.6
[CTDB TOCID: q52ivaDiNhj_Bp2D3cCgUOmoPWg-] found
Submit result: q52ivaDiNhj_Bp2D3cCgUOmoPWg- has been confirmed
Track | CTDB Status
  1   | (14/14) Accurately ripped
  2   | (14/14) Accurately ripped
  3   | (14/14) Accurately ripped
  4   | (14/14) Accurately ripped
  5   | (14/14) Accurately ripped
  6   | (14/14) Accurately ripped
  7   | (14/14) Accurately ripped
  8   | (14/14) Accurately ripped
  9   | (14/14) Accurately ripped

CD 2

Exact Audio Copy V1.1 from 23. June 2015
EAC extraction logfile from 13. September 2015, 17:57
Deep Purple / From The Setting Sun... in Wacken (CD2)
Used drive  : _NEC    DVD_RW ND-2500A   Adapter: 4  ID: 0
Read mode               : Secure
Utilize accurate stream : Yes
Defeat audio cache      : Yes
Make use of C2 pointers : No
Read offset correction                      : 48
Overread into Lead-In and Lead-Out          : No
Fill up missing offset samples with silence : Yes
Delete leading and trailing silent blocks   : No
Null samples used in CRC calculations       : Yes
Used interface                              : Installed external ASPI interface
Used output format              : User Defined Encoder
Selected bitrate                : 128 kBit/s
Quality                         : High
Add ID3 tag                     : No
Command line compressor         : C:\Program Files (x86)\Exact Audio Copy\wavpack-4.60.1\wavpack.exe
Additional command line options : -hm -w "Year=%year%" -w "Genre=%genre%" %source% %dest%
TOC of the extracted CD
     Track |   Start  |  Length  | Start sector | End sector
    ---------------------------------------------------------
        1  |  0:00.00 |  5:10.63 |         0    |    23312
        2  |  5:10.63 |  5:16.36 |     23313    |    47048
        3  | 10:27.24 |  3:00.13 |     47049    |    60561
        4  | 13:27.37 |  6:03.69 |     60562    |    87855
        5  | 19:31.31 |  4:54.13 |     87856    |   109918
        6  | 24:25.44 |  7:58.15 |    109919    |   145783
        7  | 32:23.59 |  7:20.50 |    145784    |   178833
        8  | 39:44.34 |  6:14.00 |    178834    |   206883
Range status and errors
Selected range
     Filename G:\Rips by Alder\Deep Purple - From The Setting Sun... in Wacken (CD2).wav
     Peak level 97.7 %
     Extraction speed 1.9 X
     Range quality 100.0 %
     Test CRC D4FBBD1F
     Copy CRC D4FBBD1F
     Copy OK
No errors occurred
AccurateRip summary
Track  1  not present in database
Track  2  not present in database
Track  3  not present in database
Track  4  not present in database
Track  5  not present in database
Track  6  not present in database
Track  7  not present in database
Track  8  not present in database
None of the tracks are present in the AccurateRip database
End of status report
---- CUETools DB Plugin V2.1.6
[CTDB TOCID: J.yYTIwkZwev1dFcWS0XfX7L7zw-] found
Submit result: J.yYTIwkZwev1dFcWS0XfX7L7zw- has been confirmed
Track | CTDB Status
  1   | (13/13) Accurately ripped
  2   | (13/13) Accurately ripped
  3   | (13/13) Accurately ripped
  4   | (13/13) Accurately ripped
  5   | (13/13) Accurately ripped
  6   | (13/13) Accurately ripped
  7   | (13/13) Accurately ripped
  8   | (13/13) Accurately ripped

Индексная карта (non-compilant .cue)

CD 1

REM GENRE Rock
REM DATE 2015
REM DISCID 5D0AB009
REM COMMENT "ExactAudioCopy v1.1"
PERFORMER "Deep Purple"
TITLE "From The Setting Sun... in Wacken (CD1)"
FILE "Deep Purple - From The Setting Sun... in Wacken (CD1).wv" WAVE
  TRACK 01 AUDIO
    TITLE "Highway Star"
    PERFORMER "Deep Purple"
    INDEX 01 00:00:00
  TRACK 02 AUDIO
    TITLE "Into The Fire"
    PERFORMER "Deep Purple"
    INDEX 01 06:48:55
  TRACK 03 AUDIO
    TITLE "Hard LovinMan"
    PERFORMER "Deep Purple"
    INDEX 01 10:14:60
  TRACK 04 AUDIO
    TITLE "Vincent Price"
    PERFORMER "Deep Purple"
    INDEX 01 16:49:46
  TRACK 05 AUDIO
    TITLE "Strange Kind Of Woman"
    PERFORMER "Deep Purple"
    INDEX 01 21:14:64
  TRACK 06 AUDIO
    TITLE "Contact Lost"
    PERFORMER "Deep Purple"
    INDEX 01 27:03:60
  TRACK 07 AUDIO
    TITLE "The Well-Dressed Guitar"
    PERFORMER "Deep Purple"
    INDEX 01 30:00:62
  TRACK 08 AUDIO
    TITLE "Hell To Pay"
    PERFORMER "Deep Purple"
    INDEX 01 32:38:68
  TRACK 09 AUDIO
    TITLE "Lazy"
    PERFORMER "Deep Purple"
    INDEX 01 37:41:31

CD 2

REM GENRE Rock
REM DATE 2015
REM DISCID 6E0AC608
REM COMMENT "ExactAudioCopy v1.1"
PERFORMER "Deep Purple"
TITLE "From The Setting Sun... in Wacken (CD2)"
FILE "Deep Purple - From The Setting Sun... in Wacken (CD2).wv" WAVE
  TRACK 01 AUDIO
    TITLE "Above And Beyond"
    PERFORMER "Deep Purple"
    INDEX 01 00:00:00
  TRACK 02 AUDIO
    TITLE "No One Came"
    PERFORMER "Deep Purple"
    INDEX 01 05:10:63
  TRACK 03 AUDIO
    TITLE "Don Aireys Solo"
    PERFORMER "Deep Purple"
    INDEX 01 10:27:24
  TRACK 04 AUDIO
    TITLE "Perfect Strangers"
    PERFORMER "Deep Purple"
    INDEX 01 13:27:37
  TRACK 05 AUDIO
    TITLE "Space Truckin"
    PERFORMER "Deep Purple"
    INDEX 01 19:31:31
  TRACK 06 AUDIO
    TITLE "Smoke On The Water (featuring Uli Jon Roth)"
    PERFORMER "Deep Purple"
    INDEX 01 24:25:44
  TRACK 07 AUDIO
    TITLE "Green Onions / Hush"
    PERFORMER "Deep Purple"
    INDEX 01 32:23:59
  TRACK 08 AUDIO
    TITLE "Black Night"
    PERFORMER "Deep Purple"
    INDEX 01 39:44:34

Об альбоме (сборнике)

Deep Purple объявили о выпуске двух концертных фильмов, снятых на Wacken и в Японии. На концерте Wacken, басист Роджер Гловер говорит: На Японском шоу, было очень интересно и добавляет: "В противоположность, в Будокане альбом Made In Japan который частично записан там, и мы играли там много раз, так как для такого большого пространства, акустика отличная... Это специальное здание никогда не перестает впечатлять ". To The Rising Sun (в Wacken) был снят на девять HD камер и отмечается что в первый раз Deep Purple выпустит 3D-фильм. Аудио для обоих шоу смешивали в Гамбурге Эйке Фриз и Алекс Дитц под наблюдением Гловера.

Состав

Ian Gillan - vocals
Ian Paice - drums
Roger Glover - bass
Steve Morse - guitar
Donald Airey - keyboards
--Не забываем говорить
Яндекс.Метрика
Рейтинг@Mail.ru