[ Сегодня на трекере фрилич! Идет свободное скачивание без начисления Download ]

Rihanna - Love The Way You Lie (2010) HDTVRip 1080p

 

Создавать темы 17-Сен-2015 20:53

-Rihanna - Love The Way You Lie (2010) HDTVRip 1080p- -Информация о Клипе
Исполнитель: Rihanna
Название: Love The Way You Lie
Год выхода: 2010
Продолжительность: 00:07:39
Доп. информация:
Feed (36Mbps) версия выступления. Записано с технического канала.-Файл
Кодек: MPEG4/ISO/AVC/ H.264
Формат: MKV
Качество: HDTVRip 1080p
Видео : 1280 x 720 (1.778) at 60.000 fps 34.2 Мбит/сек
Аудио : AC-3 | 384 Кбит/сек | 48.0 KHz | 5.1 channels

MI

Видео
Идентификатор                            : 1
Формат                                   : MPEG Video
Версия формата                           : Version 2
Профиль формата                          : [email protected]
Параметр BVOP формата                    : Да
Параметр матрицы формата                 : Выборочная
Параметр GOP формата                     : M=3, N=12
Идентификатор кодека                     : V_MPEG2
Идентификатор кодека/Информация          : MPEG 1 or 2 Video
Продолжительность                        : 7 м. 40 с.
Вид битрейта                             : Переменный
Битрейт                                  : 34,2 Мбит/сек
Максимальный битрейт                     : 34,9 Мбит/сек
Ширина                                   : 1280 пикселей
Высота                                   : 720 пикселей
Соотношение сторон                       : 16:9
Режим частоты кадров                     : Постоянный
Частота кадров                           : 60,000 кадров/сек
Частота кадров в оригинале               : 59,940 кадров/сек
Стандарт вещания                         : Component
Цветовое пространство                    : YUV
Субдискретизация насыщенности            : 4:2:0
Битовая глубина                          : 8 бит
Тип развёртки                            : Прогрессивная
Метод сжатия                             : С потерями
Бит/(Пиксели*Кадры)                      : 0.618
Временной код первого кадра              : 00:00:00;00
Оригинал временного кода                 : Group of pictures header
Размер потока                            : 1,83 Гбайт (97%)
Default                                  : Да
Forced                                   : Нет
Gop_OpenClosed_FirstFrame                : Closed
Аудио
Идентификатор                            : 2
Формат                                   : AC-3
Формат/Информация                        : Audio Coding 3
Расширение режима                        : CM (complete main)
Параметр Endianness формата              : Big
Идентификатор кодека                     : A_AC3
Продолжительность                        : 7 м. 40 с.
Вид битрейта                             : Постоянный
Битрейт                                  : 384 Кбит/сек
Каналы                                   : 6 каналов
Расположение каналов                     : Front: L C R, Side: L R, LFE
Частота                                  : 48,0 КГц
Битовая глубина                          : 16 бит
Метод сжатия                             : С потерями
Размер потока                            : 21,1 Мбайт (1%)
Заголовок                                : AC3
Default                                  : Да
Forced                                   : Нет

Скриншоты:

Яндекс.Метрика
Рейтинг@Mail.ru