Человек-муравей / Ant-Man (2015,фантастика, боевик, комедия, приключения) HDRip | КПК | Лицензия

 

Создавать темы 16-Дек-2015 05:45

-• Человек-муравей / Ant-Man •- Страна: США
Производство: Marvel Studios Inc.
Год выпуска: 2015
Жанр: фантастика, боевик, комедия, приключения
Режиссёр: Пейтон Рид
В ролях: Пол Радд, Майкл Дуглас, Эванджелин Лилли, Кори Столл, Майкл Пенья, Бобби Каннавале, Ти-Ай, Давид Дастмалчян, Эбби Райдер Фортсон, Джуди Грир
Перевод: Профессиональный (полное дублирование) Лицензия- Описание: Вооружившись удивительной способностью уменьшаться в размере, но обладать при этом большой силой, мошенник Скотт Лэнг должен стать героем и помочь своему наставнику, доктору Хэнку Пиму, сохранить в тайне существование костюма Человека-муравья от угроз нового поколения.- Качество: HDRip
Продолжительность: 01:57:06
Формат: MP4
Разрешение экрана: 640x346
Видео кодек: H.264
Аудио кодек: AAC-LC
Свойства видео: 640x346 (1:85:1), 23.976 fps, 500 kbps (0.094 bit/pixel)
Свойства аудио: 48.0 KHz, 2 ch, 128 kbps

MediaInfo

General
Complete name : Ant.Man.2015.HDRip.mp4
Format : MPEG-4
Format profile : Base Media
Codec ID : isom
File size : 529 MiB
Duration : 1h 57mn
Overall bit rate mode : Variable
Overall bit rate : 632 Kbps
Encoded date : UTC 2015-12-15 21:16:42
Tagged date : UTC 2015-12-15 21:16:42
Video
ID : 1
Format : AVC
Format/Info : Advanced Video Codec
Format profile : [email protected]
Format settings, CABAC : Yes
Format settings, ReFrames : 9 frames
Codec ID : avc1
Codec ID/Info : Advanced Video Coding
Duration : 1h 57mn
Bit rate : 500 Kbps
Maximum bit rate : 1 624 Kbps
Width : 640 pixels
Height : 346 pixels
Display aspect ratio : 1.85:1
Frame rate mode : Constant
Frame rate : 23.976 fps
Color space : YUV
Chroma subsampling : 4:2:0
Bit depth : 8 bits
Scan type : Progressive
Bits/(Pixel*Frame) : 0.094
Stream size : 419 MiB (79%)
Title : [email protected]
Writing library : x264 core 146 r2538 121396c
Encoding settings : cabac=1 / ref=9 / deblock=1:-3:-3 / analyse=0x3:0x113 / me=umh / subme=11 / psy=1 / psy_rd=1.00:0.00 / mixed_ref=1 / me_range=32 / chroma_me=1 / trellis=2 / 8x8dct=1 / cqm=0 / deadzone=21,11 / fast_pskip=0 / chroma_qp_offset=-2 / threads=6 / lookahead_threads=1 / sliced_threads=0 / nr=0 / decimate=0 / interlaced=0 / bluray_compat=0 / constrained_intra=0 / bframes=9 / b_pyramid=2 / b_adapt=2 / b_bias=0 / direct=3 / weightb=1 / open_gop=0 / weightp=2 / keyint=240 / keyint_min=23 / scenecut=40 / intra_refresh=0 / rc=2pass / mbtree=0 / bitrate=500 / ratetol=1.0 / qcomp=0.60 / qpmin=0 / qpmax=69 / qpstep=4 / cplxblur=20.0 / qblur=0.5 / ip_ratio=1.40 / pb_ratio=1.30 / aq=1:1.00
Encoded date : UTC 2015-12-15 21:16:42
Tagged date : UTC 2015-12-15 21:17:18
Audio
ID : 2
Format : AAC
Format/Info : Advanced Audio Codec
Format profile : LC
Codec ID : 40
Duration : 1h 57mn
Bit rate mode : Variable
Bit rate : 128 Kbps
Maximum bit rate : 179 Kbps
Channel(s) : 2 channels
Channel positions : Front: L R
Sampling rate : 48.0 KHz
Compression mode : Lossy
Stream size : 107 MiB (20%)
Encoded date : UTC 2015-12-15 15:39:39
Tagged date : UTC 2015-12-15 21:17:18

Скриншоты

Яндекс.Метрика
Рейтинг@Mail.ru