Новогодняя ночь на Первом (2014.01.01) SATRip

 

Создавать темы 31-Дек-2013 20:20

- Новогодняя ночь на Первом (2014.01.01) SATRip - Режиссер / Телекомпания: Первый канал
Русское название: Новогодняя ночь на Первом
Год выпуска: 2013
Жанр: ТВ_Шоу
Выпущено: Россия

Описание:
В столицу предстоящей Олимпиады отправляется сборная телеведущих в составе Дмитрия Диброва, Юлии Зиминой, Ларисы Гузеевой, Антона Привольнова, Аллы Михеевой и Александра Гудкова. На ответственную работу тренера сборной назначена Алла Пугачева. Примадонна всех расставляет по своим местам: Лариса Гузеева попадает в команду по скелетону, Юлия Зимина отправляется к фигуристам, Дмитрий Нагиев будет прикомандирован к биатлонистам. Экипировку сборной доверят Антону Привольному.
Продолжительность: 02:20:16
Видеокодек: DivX
Качество видео: SATRip
Битрейт видео: ~1750 kb/s
Размер кадра: 704 x 400
Аудиокодек: MP3, 2.0ch.
Битрейт аудио: 128 kb/s

В перерывах между тренировками:

* Алла Пугачева исполняет песню, которую еще никто не слышал;
* Андрей Малахов развлекает неразговорчивых девушек;
* "Иванушки International" становятся Дедушками (Морозами) International;
* Филипп Киркоров и Валентин Юдашкин проводят модный показ;
* Алла Михеева катает шефа Ивана Андреевича на своей "девятке";
* Надежда Бабкина проводит образцово-показательное чаепитие;
* Валерий Меладзе и Полина Гагарина поют под музыку Вивальди;
* Елена Ваенга и Стас Михайлов несут радость мужчинам и женщинам.
В новогоднем шоу - участники главного музыкального проекта "Голос": Наргиз Закирова, Андрей Давидян, Шарип Умханов, Гела Гуралия, Полина Конкина, Шарип Умханов, Антон Беляев, Алена Тойминцева и победительница первого сезона проекта Дина Гарипова.
Наставники "Голоса" Леонид Агутин, Александр Градский, Пелагея и Дима Билан демонстрируют высший класс с песней "Мой друг играет блюз".
"Я думала, это весна, а это оттепель", - этой зимой все поют песню из сериала Валерия Тодоровского, а в новогоднюю ночь смогут подпевать Паулине Андреевой.
Звезды другого популярнейшего шоу - "Один в один" - также в числе гостей. Анита Цой перевоплощается в Тину Тернер, Сати Казанова - в Мерлин Монро, а Тимур Родригез в Майкла Джексона.
Кристина Орбакайте, Алексей Чумаков, Анжелика Варум, София Ротару, Алсу, Константин Меладзе, Людмила Сенчина, Сергей Трофимов, Александр Олешко, Гарик Сукачев и многие другие в Новогоднюю ночь на Первом.

MediaInfo:

Формат : AVI
Формат/Информация : Audio Video Interleave
Профиль формата : OpenDML
Размер файла : 1,86 Гбайт
Продолжительность : 2 ч. 20 м.
Общий поток : 1895 Кбит/сек
Видео
Идентификатор : 0
Формат : MPEG-4 Visual
Параметр BVOP формата : Да
Параметр QPel формата : Нет
Параметр GMC формата : Без точки перехода
Параметр матрицы формата : Default (H.263)
Идентификатор кодека : DX50
Идентификатор кодека/Подсказка : DivX 5
Продолжительность : 2 ч. 20 м.
Битрейт : 1750 Кбит/сек
Ширина : 704 пикселя
Высота : 400 пикселей
Соотношение сторон : 16:9
Частота кадров : 25,000 кадров/сек
Цветовое пространство : YUV
Субдискретизация насыщенности : 4:2:0
Битовая глубина : 8 бит
Тип развёртки : Прогрессивная
Метод сжатия : С потерями
Бит/(Пиксели*Кадры) : 0.249
Размер потока : 1,71 Гбайт (92%)
Библиотека кодирования : Intel(R) MPEG-4 encoder based on Intel(R) IPP 6.1 build 137.20[6.1.137.763]
Аудио
Идентификатор : 1
Формат : MPEG Audio
Версия формата : Version 1
Профиль формата : Layer 3
Режим : Joint stereo
Расширение режима : MS Stereo
Идентификатор кодека : 55
Идентификатор кодека/Подсказка : MP3
Продолжительность : 2 ч. 20 м.
Вид битрейта : Постоянный
Битрейт : 128 Кбит/сек
Каналы : 2 канала
Частота : 48,0 КГц
Метод сжатия : С потерямиhttp:
Размер потока : 128 Мбайт (7%)
Выравнивание : Соединение по промежуткам
Продолжительность промежутка : 24 мс. (0,60 видеокадр)
Библиотека кодирования : LAME3.98.2
-Скриншоты:--Время раздачи: 24/7. До первых 5 скачавших.
Яндекс.Метрика
Рейтинг@Mail.ru