Прекрасные времена в Шпессарте / Herrliche Zeiten im Spessart (Курт Хоффманн / Kurt Hoffmann) [1967 г., фантастика, комедия, DVDRip] VO

 

Создавать темы 02-Июл-2016 05:02

-Прекрасные времена в Шпессарте / Herrliche Zeiten im Spessart-- Производство: Германия (ФРГ), CCC Filmkunst GmbH, Independent Film
Год выпуска: 1967 г.
Жанр: фантастика, комедия
Продолжительность: 01:40:40Мировая премьера: 21 сентября 1967
Перевод: Профессиональный (одноголосый, закадровый)
Режиссер: Курт Хоффманн / Kurt Hoffmann-В ролях: Лизлотт Пюльве, Карлос Томпсон, Рудольф Фогель, Гюнтер Людерс и др.-Описание: Третий фильм трилогии пародийных комедий о привидениях рассказывает о событиях, случившихся в отеле «Шпессарт», где его владелица Анна-Луиза Зандау готовится к свадьбе с американским офицером Фрэнком Грином…-
Качество видео: DVDRip
Контейнер: AVI
Видео кодек: XviD
Аудио кодек: AC3
Видео: 720x472 (1.53:1), 25 fps, XviD build 50 ~2638 kbps avg, 0.31 bit/pixel
Аудио: 48 kHz, AC3 Dolby Digital, 2/0 (L,R) ch, ~192 kbps
Cубтитры: отсутствуют

Доп. информация

В советском прокате фильм шёл урезанным по цензурным соображениям: в конце фильма, во время полёта привидений в ракете на Луну, вырезан эпизод с советской ракетой, которую привидения обгоняют. Хотя, изначально, на студии «Союзмультфильм» эта сцена была дублирована и иногда в кинотеатрах шёл целый фильм.
Фильм восстановлен на киностудии им. Горького в 1985 году. После этого восстановления фильм вернулся в советский прокат уже чёрно-белым. Оригинальный немецкий фильм — цветной («Eastmancolor»).

Media Info

Общее
Полное имя : D:\D\Привидения в замке Шпессарт\Prekrasnye vremena v Shpessarte.1967.[pirat.ca].avi
Формат : AVI
Формат/Информация : Audio Video Interleave
Профиль формата : OpenDML
Размер файла : 2,00 Гбайт
Продолжительность : 1 ч. 40 м.
Общий поток : 2838 Кбит/сек
Название фильма : Prekrasnye vremena v Shpessarte.1967.[pirat.ca]
Программа кодирования : VirtualDubMod 1.5.10.3 | www.virtualdub-fr.org || (build 2550/release)Видео
Идентификатор : 0
Формат : MPEG-4 Visual
Профиль формата : Advanced [email protected]/* */
Параметр BVOP формата : 1
Параметр QPel формата : Нет
Параметр GMC формата : Без точки перехода
Параметр матрицы формата : Default (MPEG)
Идентификатор кодека : XVID
Идентификатор кодека/Подсказка : XviD
Продолжительность : 1 ч. 40 м.
Битрейт : 2633 Кбит/сек
Ширина : 720 пикселей
Высота : 472 пикселя
Соотношение сторон : 3:2
Частота кадров : 25,000 кадров/сек
Цветовое пространство : YUV
Субдискретизация насыщенности : 4:2:0
Битовая глубина : 8 бит
Тип развёртки : Прогрессивная
Метод сжатия : С потерями
Бит/(Пиксели*Кадры) : 0.310
Размер потока : 1,85 Гбайт (93%)
Библиотека кодирования : XviD 1.2.1 (UTC 2008-12-04)Аудио
Идентификатор : 1
Формат : AC-3
Формат/Информация : Audio Coding 3
Расширение режима : CM (complete main)
Параметр Endianness формата : Big
Идентификатор кодека : 2000
Продолжительность : 1 ч. 40 м.
Вид битрейта : Постоянный
Битрейт : 192 Кбит/сек
Каналы : 2 канала
Расположение каналов : Front: L R
Частота : 48,0 КГц
Частота кадров : 31,250 кадров/сек (1536 spf)
Метод сжатия : С потерями
Размер потока : 138 Мбайт (7%)
Выравнивание : Разделение по промежуткам
Продолжительность промежутка : 40 мс. (1,00 видеокадр)
Время предзагрузки промежутка : 500 мс.

Скриншот c названием фильма

Скриншоты

-Трейлер
Яндекс.Метрика
Рейтинг@Mail.ru