Зверополис / Zootopia (Байрон Ховард / Byron Howard, ...) [2016 г., мультфильм, боевик, комедия, криминал, приключения, семейный, BDRip, 1080p] Dub (Blu-ray) + Original (Eng) + Sub (Rus, Eng)

 

Создавать темы 22-Авг-2016 04:51

- --Зверополис / Zootopia
«Welcome to the urban jungle.»
-- Производство: США | Walt Disney Animation Studios
Год выпуска: 2016 г.
Жанр: мультфильм, боевик, комедия, криминал, приключения, семейный
Продолжительность: 01:48:44Перевод: Профессиональный (полное дублирование) [Blu-ray EUR]
Оригинальный аудиопоток: английскийРежиссер: Байрон Ховард / Byron Howard, Рич Мур / Rich Moore, Джаред Буш / Jared Bush-В ролях: Джиннифер Гудвин, Джейсон Бейтман, Идрис Эльба, Дженни Слейт, Нейт Торренс, Бонни Хант, Дон Лейк, Томми Чонг, Дж.К. Симмонс, Октавия Спенсер-Описание: Добро пожаловать в Зверополис – современный город, населенный самыми разными животными, от огромных слонов до крошечных мышек. Зверополис разделен на районы, полностью повторяющие естественную среду обитания разных жителей – здесь есть и элитный район Площадь Сахары и неприветливый Тундратаун. В этом городе появляется новый офицер полиции, жизнерадостная зайчиха Джуди Хоппс, которая с первых дней работы понимает, как сложно быть маленькой и пушистой среди больших и сильных полицейских. Джуди хватается за первую же возможность проявить себя, несмотря на то, что ее партнером будет болтливый хитрый лис Ник Уайлд. Вдвоем им предстоит раскрыть сложное дело, от которого будет зависеть судьба всех обитателей Зверополиса.- -Качество видео: BDRip
Контейнер: MKV
Стандарт разрешения: 1080p
Видео кодек: H.264/AVC
Аудио кодек: AC3, DTS
Видео: 1920x804 at 23.976 fps, ~14.4 Mbps avg - видеоряд локализован
Аудио: Russian: 48 kHz, AC3, 3/2 (L,C,R,l,r) + LFE ch, ~640.00 kbps avg |Дубляж, Blu-ray EUR|
Аудио #2: English: 48 kHz, DTS, 3/2 (L,C,R,l,r) + LFE ch, ~1536.00 kbps avg
Cубтитры: Russian (iTunes), English (iTunes), English, English (SDH)

Знаете ли вы, что...

• В анимационном «Городе героев» (2014) в эпизоде полёта Бэймакса и Хиро можно увидеть постер «Зверополиса».
• На футляре телефона Хани Лемон из «Города героев» (2014) изображено главное действующее лицо «Зверополиса».
• Персонаж Ника Уайлда срисован с диснеевского Робина Гуда из одноимённого мультфильма, который тоже был лисом.
• Для актёра Алана Тьюдика это работа уже в четвёртом подряд мультфильме, который продюсирует 'Walt Disney Animation Studios', после 'Ральфа' (2012), 'Холодного сердца' (2013) и 'Города героев'(2014).
• Это уже третий мультфильм студии «Disney», в котором действуют антропоморфные животные и в котором нет ни людей, ни не-антропоморфных животных. Первыми двумя были «Робин Гуд» (1973) и «Цыплёнок Цыпа» (2005).
• Дюка Хорьковица (в оригинале англ. Duke Weaselton) озвучивает Алан Тьюдик, который также озвучил герцога Варавского (в оригинале англ. Duke of Weselton) в мультфильме «Холодное сердце» (2013). Герцог по-английски «duke».
• Это первый анимационный фильм студии «Disney» после мультфильма «Медвежонок Винни и его друзья» (2011), премьера которого состоится не в ноябре.
• Персонаж Джуди Хоппс в исполнении Джиннифер Гудвин назван в честь персонажа Джуди Хоффс в исполнении Холли Робинсон Пит из сериала «Джамп стрит, 21» (1987).
• Это первый из двух анимационных фильмов с участием Идриса Эльбы, предназначенный к выходу в 2016 году. Вторым будет «В поисках Дори».

Ошибки в фильме

• Время на электронном будильнике Джуди в ее комнате и на телефоне во время разговора с родителями отличаются. До разговора с родителями на обоих часах время одинаковое, а после звонка на мобильном телефоне изменилось на 9:44.

Media Info

Код:
Format                      : Matroska
Format version              : Version 4 / Version 2
File size                   : 12.9 GiB
Duration                    : 1h 48mn
Overall bit rate            : 16.9 Mbps
Movie name                  : Zootopia (2016)
Encoded date                : UTC 2016-08-20 08:06:23
Writing application         : mkvmerge v6.0.0 ('Coming Up For Air') built on Jan 20 2013 09:52:00
Writing library             : libebml v1.3.0 + libmatroska v1.4.0
Attachements                : VietHD.log
DURATION                    : 01:45:45.338000000
NUMBER_OF_FRAMES            : 2295
NUMBER_OF_BYTES             : 66351
_STATISTICS_WRITING_APP     : mkvmerge v8.3.0 ('Over the Horizon') 64bit
_STATISTICS_WRITING_DATE_UT : 2016-08-12 05:10:41
_STATISTICS_TAGS            : BPS DURATION NUMBER_OF_FRAMES NUMBER_OF_BYTESVideo
ID                          : 1
Format                      : AVC
Format/Info                 : Advanced Video Codec
Format profile              : [email protected]/*  */
Format settings, CABAC      : Yes
Format settings, ReFrames   : 5 frames
Codec ID                    : V_MPEG4/ISO/AVC
Duration                    : 1h 48mn
Bit rate                    : 14.4 Mbps
Width                       : 1 920 pixels
Height                      : 804 pixels
Display aspect ratio        : 2.40:1
Frame rate mode             : Constant
Frame rate                  : 23.976 fps
Color space                 : YUV
Chroma subsampling          : 4:2:0
Bit depth                   : 8 bits
Scan type                   : Progressive
Bits/(Pixel*Frame)          : 0.390
Stream size                 : 11.0 GiB (85%)
Title                       : Zootopia (2016)
Writing library             : x264 core 148 r2705 3f5ed56
Encoding settings           : cabac=1 / ref=5 / deblock=1:-3:-3 / analyse=0x3:0x133 / me=umh / subme=11 / psy=1 / psy_rd=1.00:0.00 / mixed_ref=1 / me_range=48 / chroma_me=1 / trellis=2 / 8x8dct=1 / cqm=0 / deadzone=21,11 / fast_pskip=0 / chroma_qp_offset=-2 / threads=24 / lookahead_threads=4 / sliced_threads=0 / nr=0 / decimate=1 / interlaced=0 / bluray_compat=0 / constrained_intra=0 / bframes=8 / b_pyramid=2 / b_adapt=2 / b_bias=0 / direct=1 / weightb=1 / open_gop=0 / weightp=2 / keyint=240 / keyint_min=23 / scenecut=40 / intra_refresh=0 / rc_lookahead=60 / rc=crf / mbtree=0 / crf=15.8 / qcomp=0.60 / qpmin=0 / qpmax=69 / qpstep=4 / vbv_maxrate=50000 / vbv_bufsize=62500 / crf_max=0.0 / nal_hrd=none / filler=0 / ip_ratio=1.35 / pb_ratio=1.25 / aq=1:0.80
Language                    : Russian
Default                     : Yes
Forced                      : No
DURATION                    : 01:48:44.435000000
NUMBER_OF_FRAMES            : 156430
NUMBER_OF_BYTES             : 12038902044
_STATISTICS_WRITING_APP     : mkvmerge v8.3.0 ('Over the Horizon') 64bit
_STATISTICS_WRITING_DATE_UT : 2016-08-12 05:10:41
_STATISTICS_TAGS            : BPS DURATION NUMBER_OF_FRAMES NUMBER_OF_BYTESAudio #1
ID                          : 2
Format                      : AC-3
Format/Info                 : Audio Coding 3
Mode extension              : CM (complete main)
Format settings, Endianness : Big
Codec ID                    : A_AC3
Duration                    : 1h 48mn
Bit rate mode               : Constant
Bit rate                    : 640 Kbps
Channel(s)                  : 6 channels
Channel positions           : Front: L C R, Side: L R, LFE
Sampling rate               : 48.0 KHz
Bit depth                   : 16 bits
Compression mode            : Lossy
Stream size                 : 498 MiB (4%)
Title                       : AC3 5.1 @ 640 kbps - DUB, Blu-ray EUR
Language                    : Russian
Default                     : Yes
Forced                      : NoAudio #2
ID                          : 3
Format                      : DTS
Format/Info                 : Digital Theater Systems
Mode                        : 16
Format settings, Endianness : Big
Codec ID                    : A_DTS
Duration                    : 1h 48mn
Bit rate mode               : Constant
Bit rate                    : 1 509 Kbps
Channel(s)                  : 6 channels
Channel positions           : Front: L C R, Side: L R, LFE
Sampling rate               : 48.0 KHz
Bit depth                   : 24 bits
Compression mode            : Lossy
Stream size                 : 1.15 GiB (9%)
Title                       : DTS 5.1 @ 1536 kbps
Language                    : English
Default                     : No
Forced                      : NoText #1
ID                          : 4
Format                      : UTF-8
Codec ID                    : S_TEXT/UTF8
Codec ID/Info               : UTF-8 Plain Text
Title                       : iTunes
Language                    : Russian
Default                     : No
Forced                      : NoText #2
ID                          : 5
Format                      : UTF-8
Codec ID                    : S_TEXT/UTF8
Codec ID/Info               : UTF-8 Plain Text
Title                       : iTunes
Language                    : English
Default                     : No
Forced                      : NoText #3
ID                          : 6
Format                      : UTF-8
Codec ID                    : S_TEXT/UTF8
Codec ID/Info               : UTF-8 Plain Text
Language                    : English
Default                     : No
Forced                      : NoText #4
ID                          : 7
Format                      : UTF-8
Codec ID                    : S_TEXT/UTF8
Codec ID/Info               : UTF-8 Plain Text
Title                       : SDH
Language                    : English
Default                     : No
Forced                      : NoMenu
00:00:00.000                : en:Prologue
00:00:59.559                : en:Gideon Grey
00:05:50.100                : en:The Police Academy
00:10:05.563                : en:Welcome to Zootopia
00:14:31.537                : en:Meter Maid Duty
00:18:24.019                : en:Pawpsicles
00:26:03.353                : en:The Weasel Chase
00:30:57.439                : en:It's Called A Hustle
00:37:07.100                : en:The Naturalist Club
00:40:43.441                : en:Department Of 10
00:44:31.752                : en:Mr. Big
00:51:40.430                : en:Manchas Goes Savage
00:55:40.378                : en:The Gondola
01:00:48.269                : en:Help from Bellwether
01:03:37.855                : en:Cliffside Asylum
01:09:19.822                : en:We Cracked the Case
01:13:39.165                : en:Hopps Gives Up
01:17:07.372                : en:Hopps' Apology
01:21:52.366                : en:Doug's Laboratory
01:28:19.169                : en:The Natural History Museum
01:32:43.433                : en:Epilogue
01:36:12.141                : en:End Credits

Скриншот c названием фильма

Скриншоты

Яндекс.Метрика
Рейтинг@Mail.ru