Красавица и чудовище / Beauty and the Beast (Гари Труздейл, Кирк Уайз)[1991,мультфильм, мюзикл, фэнтези, мелодрама, семейный, BDRip-HEVC 720p] от Freeisland

 

Создавать темы 04-Янв-2014 17:46

Красавица и чудовище
Beauty and the Beast-- Год выпуска: 1991
Страна: США
Жанр: мультфильм, мюзикл, фэнтези, мелодрама, семейный
Продолжительность: 01:31:44
Перевод: Профессиональный (дублированный)
Субтитры: Russian (UTF-8), Russian (UTF-8), Ukrainian (UTF-8), English (UTF-8)
Режиссер: Гари Труздейл, Кирк Уайз
Сценарий: Линда Вулвертон, Роджер Аллерс, Бренда Чепмен, ...
Продюсер: Дон Хан, Ховард Эшман, Джон Лассетер, ...
Композитор: Алан Менкен
Художник: Брайан МакЭнти
Монтаж: Джон Карнокэн, Билл Вилнер
В ролях: Пейдж О’Хара / Paige O'Hara (Belle, озвучка), Робби Бенсон / Robby Benson (Beast, озвучка), Ричард Уайт / Richard White (Gaston, озвучка), Джерри Орбак / Jerry Orbach (Lumiere, озвучка), Дэвид Огден Стайерз / David Ogden Stiers (Cogsworth, рассказчик, озвучка), Анджела Лэнсбери / Angela Lansbury (Mrs. Potts, озвучка), Брэдли Пирс / Bradley Pierce (в титрах: Bradley Michael Pierce) (Chip, озвучка), Рекс Эверхарт / Rex Everhart (Maurice, озвучка), Джесси Корти / Jesse Corti (Lefou, озвучка), Хэл Смит / Hal Smith (Philippe, озвучка)
Описание: В заколдованном замке, скрытом в темном лесу, живет ужасное Чудовище. Растопить лед в его сердце и вернуть ему человеческий облик, сняв заклятие, может только прекрасная девушка, которая полюбит его таким, какой он есть.
Бюджет: $25 000 000
Сборы в США: $218 967 620
Сборы в мире: + $206 000 000 = $424 967 620
Сборы в России: $1 394 549
Зрители: США 45.4 млн , Германия 5.18 млн , Франция 4.19 млн
Премьера (мир): 29 сентября 1991
Премьера (РФ): 6 декабря 2012, «WDSSPR» 3D
Релиз на DVD: 11 февраля 2010, «Уолт Дисней Компани СНГ»
Релиз на Blu-Ray: 1 мая 2012, «Уолт Дисней Компани СНГ»
Рейтинг MPAA: Нет возрастных ограничений

Внимание
Рип в фомате HEVC, в настоящее время не поддерживается аппаратными проигрывателями.
Для корректного воспроизведения может потребоваться обновление ПО.
Владельцам несовместимого железа просьба не беспокоить, на трекере есть альтернативные релизы.


Качество: BDRip 720р HEVC (SSIM: 0.982985)
Формат: MKV
Видео кодек: x265
Аудио кодеk: AC3
Видео: HEVC at 1280x720 (16:9), 23.976 fps, 2 836 Kbps
Аудио #1: AC3, 640 Kbps, 48.0 KHz, 6 ch Дубляж (Русский)
Аудио #2: AC3, 640 Kbps, 48.0 KHz, 6 ch Дубляж (Украинский)
Аудио #3: AC3, 640 Kbps, 48.0 KHz, 6 ch Оригинал
--

x265 (основные настройки энкода, не отображаются в MI)


[info]: using cpu capabilities: MMX2 SSE SSE2Fast SSSE3 SSE4.2 AVX
[info]: HEVC encoder version 0.6+239-8137881d4cad
[info]: build info [Windows][GCC 4.8.2][64 bit] 8bpp
[info]: Main profile, Level-5.2 (Main tier)
[info]: WPP streams / pool / frames : 12 / 4 / 4
[info]: CU size : 64
[info]: Max RQT depth inter / intra : 2 / 2
[info]: ME / range / subpel / merge : umh / 32 / 5 / 3
[info]: Keyframe min / max : 24 / 24
[info]: Rate Control / AQ-Strength / CUTree : CRF-13.5 / 1.0 / 1
[info]: RDpenalty : 1
[info]: Lookahead / bframes / badapt : 40 / 8 / 2
[info]: b-pyramid / weightp / refs : 1 / 1 / 4
[info]: tools: rect amp esd rd=4 lft sao-lcu sign-hide

МедиаИнфо

General
Complete name : Krasavitsa.I.Chudovishhe.1991.BDRip.720p.mkv
Format : Matroska
File size : 3.11 GiB
Duration : 1h 31mn
Overall bit rate : 4 853 Kbps
Encoded date : UTC 2014-01-04 07:19:10
Writing application : mkvmerge v6.6.0 ('The Edge Of The In Between') built on Dec 1 2013 17:55:00
Writing library : libebml v1.3.0 + libmatroska v1.4.1
Video
ID : 1
Format : V_MPEGH/ISO/HEVC
Codec ID : V_MPEGH/ISO/HEVC
Duration : 1h 31mn
Bit rate : 2 836 Kbps
Width : 1 280 pixels
Height : 720 pixels
Display aspect ratio : 16:9
Frame rate : 23.976 fps
Bits/(Pixel*Frame) : 0.128
Stream size : 1.82 GiB (58%)
Audio #1
ID : 2
Format : AC-3
Format/Info : Audio Coding 3
Mode extension : CM (complete main)
Codec ID : A_AC3
Duration : 1h 31mn
Bit rate mode : Constant
Bit rate : 640 Kbps
Channel(s) : 6 channels
Channel positions : Front: L C R, Side: L R, LFE
Sampling rate : 48.0 KHz
Bit depth : 16 bits
Stream size : 420 MiB (13%)
Title : Дубляж
Language : Russian
Audio #2
ID : 3
Format : AC-3
Format/Info : Audio Coding 3
Mode extension : CM (complete main)
Codec ID : A_AC3
Duration : 1h 31mn
Bit rate mode : Constant
Bit rate : 640 Kbps
Channel(s) : 6 channels
Channel positions : Front: L C R, Side: L R, LFE
Sampling rate : 48.0 KHz
Bit depth : 16 bits
Stream size : 420 MiB (13%)
Title : Дубляж
Language : Ukrainian
Audio #3
ID : 4
Format : AC-3
Format/Info : Audio Coding 3
Mode extension : CM (complete main)
Codec ID : A_AC3
Duration : 1h 31mn
Bit rate mode : Constant
Bit rate : 640 Kbps
Channel(s) : 6 channels
Channel positions : Front: L C R, Side: L R, LFE
Sampling rate : 48.0 KHz
Bit depth : 16 bits
Stream size : 420 MiB (13%)
Language : English
Text #1
ID : 5
Format : UTF-8
Codec ID : S_TEXT/UTF8
Codec ID/Info : UTF-8 Plain Text
Language : Russian
Text #2
ID : 6
Format : UTF-8
Codec ID : S_TEXT/UTF8
Codec ID/Info : UTF-8 Plain Text
Language : Russian
Text #3
ID : 7
Format : UTF-8
Codec ID : S_TEXT/UTF8
Codec ID/Info : UTF-8 Plain Text
Language : Ukrainian
Text #4
ID : 8
Format : UTF-8
Codec ID : S_TEXT/UTF8
Codec ID/Info : UTF-8 Plain Text
Language : English
Menu
00:00:00.000 : :1. Once Upon a Time...
00:03:19.616 : :2. "Belle"
00:08:24.838 : :3. Gaston Stops Belle
00:13:50.955 : :4. Maurice Comes Upon a Castle
00:17:34.887 : :5. Gaston Proposes to Belle
00:20:53.836 : :6. Belle Goes in Search of Maurice
00:25:34.241 : :7. Belle's New Home
00:27:04.748 : :8. "Gaston"
00:34:58.847 : :9. An Invitation to Dinner
00:38:28.848 : :10. "Be Our Guest"
00:43:50.795 : :11. The West Wing
00:49:25.629 : :12. Belle Tends to the Beast's Wounds
00:51:59.074 : :13. Something Special for Belle
00:53:59.736 : :14. "Something There"
00:57:26.652 : :15. "Human Again"
01:03:07.242 : :16. "Beauty and the Beast"
01:09:42.553 : :17. Gaston's Evil Plan in Action
01:11:28.451 : :18. "The Mob Song"
01:14:22.458 : :19. The Castle Under Attack
01:17:15.381 : :20. Gaston and the Beast
01:21:48.904 : :21. The Transformation
01:26:00.322 : :22. End Credits

Скриншоты

Релиз группы:

Что такое HEVC и как его смотреть?

Что такое HEVC
H.265/HEVC (High Efficiency Video Coding) - это новый стандарт кодирования видео.
Стандарт H.265/HEVC является логическим продолжением стандарта H.264/AVC (Advanced Video Coding), и харакетризуется более эффективными алгоритмами сжатия, а также поддержкой высокого разрешения вплоть до 8K UHD (8192x4320).
Первая версия стандарта H.265 была опубликована в начале 2013 года.

Как смотреть HEVC
Любителям решения из коробки - установить последнюю версию Media Player Classic - Black Edition (MPC-BE) или VLC media player
Любителям WMP и других плееров, использующих по умолчанию для воспроизведения системные кодеки+сплитеры - установить K-Lite Codec Pack версии 10.1.0 и выше.
Любимые плееры, не использующии по умолчанию для воспроизведения системные кодеки+сплитеры, нужно перенастроить на использование оных.
Яндекс.Метрика
Рейтинг@Mail.ru